999
DXF file: d9001002a_asm_garbi_ul_sempl.dxf
999
Pro/ENGINEER 2017110 by Parametric Technology Corporation
  0
SECTION
  2
HEADER
  9
$ACADVER
  1
AC1027
  9
$DWGCODEPAGE
  3
ANSI_1252
  9
$EXTMAX
 10
1189.0
 20
841.0
 30
0.0
  9
$EXTMIN
 10
0.0
 20
0.0
 30
0.0
  9
$LIMMIN
 10
0.0
 20
0.0
  9
$LIMMAX
 10
1189.0
 20
841.0
  9
$VIEWCTR
 10
594.5
 20
420.5
  9
$VIEWSIZE
 40
841.0
  9
$CLAYER
  8
0
  9
$LTSCALE
 40
65.395
  9
$CELTYPE
  6
BYLAYER
  9
$DIMSCALE
 40
1.0
  9
$DIMASZ
 40
4.0
  9
$DIMEXO
 40
1.0
  9
$DIMDLI
 40
45.182
  9
$DIMEXE
 40
1.0
  9
$DIMCEN
 40
10.701
  9
$DIMLFAC
 40
1.0
  9
$DIMBLK
  1
_FILLED
  9
$DIMALT
 70
0
  9
$DIMALTF
 40
25.4
  9
$DIMTXT
 40
3.0
  9
$DIMTOL
 70
1
  9
$DIMLIM
 70
0
  9
$DIMTFAC
 40
1.0
  9
$DIMTP
 40
0.001
  9
$DIMTM
 40
0.001
  9
$DIMGAP
 40
0.625
  9
$DIMDSEP
 70
46
  9
$AUNITS
 70
0
  9
$PDMODE
 70
3
  9
$PDSIZE
 40
0.3125
  9
$HANDSEED
  5
51C
  9
$TILEMODE
 70
1
  9
$MEASUREMENT
 70
1
  9
$INSUNITS
 70
4
  0
ENDSEC
  0
SECTION
  2
CLASSES
  0
CLASS
  1
ACDBDICTIONARYWDFLT
  2
AcDbDictionaryWithDefault
  3
AutoCAD 2000
 90
0
 91
1
280
0
281
0
  0
CLASS
  1
ACDBPLACEHOLDER
  2
AcDbPlaceHolder
  3
AutoCAD 2000
 90
0
 91
1
280
0
281
0
  0
CLASS
  1
LAYOUT
  2
AcDbLayout
  3
AutoCAD 2000
 90
0
 91
0
280
0
281
0
  0
CLASS
  1
TABLESTYLE
  2
AcDbTableStyle
  3
ObjectDBX Classes
 90
2047
 91
1
280
0
281
0
  0
CLASS
  1
ACAD_TABLE
  2
AcDbTable
  3
ObjectDBX Classes
 90
1025
 91
1
280
0
281
1
  0
ENDSEC
  0
SECTION
  2
TABLES
  0
TABLE
  2
VPORT
  5
8
100
AcDbSymbolTable
 70
2
  0
VPORT
  5
1F4
100
AcDbSymbolTableRecord
100
AcDbViewportTableRecord
  2
*ACTIVE
 70
0
 10
0.0
 20
0.0
 11
1.0
 21
1.0
 12
594.5
 22
420.5
 13
0.0
 23
0.0
 14
1.0
 24
1.0
 15
0.0
 25
0.0
 16
0.0
 26
0.0
 36
1.0
 17
0.0
 27
0.0
 37
0.0
 40
841.0
 41
1.4137931034
 42
50.0
 43
0.0
 44
0.0
 50
0.0
 51
0.0
 71
0
 72
100
 73
1
 74
1
 75
0
 76
0
 77
0
 78
0
  0
ENDTAB
  0
TABLE
  2
LTYPE
  5
5
100
AcDbSymbolTable
 70
6
  0
LTYPE
  5
14
100
AcDbSymbolTableRecord
100
AcDbLinetypeTableRecord
  2
BYBLOCK
 70
0
  3

 72
65
 73
0
 40
0.0
  0
LTYPE
  5
15
100
AcDbSymbolTableRecord
100
AcDbLinetypeTableRecord
  2
BYLAYER
 70
0
  3

 72
65
 73
0
 40
0.0
  0
LTYPE
  5
16
100
AcDbSymbolTableRecord
100
AcDbLinetypeTableRecord
  2
CONTINUOUS
 70
64
  3
Solid line
 72
65
 73
0
 40
0.0
  0
LTYPE
  5
1F5
100
AcDbSymbolTableRecord
100
AcDbLinetypeTableRecord
  2
CENTER
 70
64
  3
____ _ ____ _ ____ _ ____ _ ____ _ ____ _ ____
 72
65
 73
4
 40
0.6
 49
0.375
 74
0
 49
-0.075
 74
0
 49
0.075
 74
0
 49
-0.075
 74
0
  0
LTYPE
  5
1F6
100
AcDbSymbolTableRecord
100
AcDbLinetypeTableRecord
  2
HIDDEN
 70
64
  3
- - - - - - - - - - - - - - - - - - - -
 72
65
 73
2
 40
0.2
 49
0.1
 74
0
 49
-0.1
 74
0
  0
LTYPE
  5
1F7
100
AcDbSymbolTableRecord
100
AcDbLinetypeTableRecord
  2
PHANTOM
 70
64
  3
_____ _ _ _____ _ _ _____ _ _ _____
 72
65
 73
6
 40
0.8
 49
0.45
 74
0
 49
-0.05
 74
0
 49
0.1
 74
0
 49
-0.05
 74
0
 49
0.1
 74
0
 49
-0.05
 74
0
  0
LTYPE
  5
1F8
100
AcDbSymbolTableRecord
100
AcDbLinetypeTableRecord
  2
DOT
 70
64
  3
. . . . . . . . . . . . . . . . . . . .
 72
65
 73
2
 40
0.2
 49
0.1
 74
0
 49
-0.1
 74
0
  0
LTYPE
  5
1F9
100
AcDbSymbolTableRecord
100
AcDbLinetypeTableRecord
  2
DASHED
 70
64
  3
- - - - - - - - - - - - - - - - - - - -
 72
65
 73
2
 40
0.2
 49
0.1
 74
0
 49
-0.1
 74
0
  0
ENDTAB
  0
TABLE
  2
LAYER
  5
2
100
AcDbSymbolTable
 70
36
  0
LAYER
  5
10
100
AcDbSymbolTableRecord
100
AcDbLayerTableRecord
  2
0
 70
0
 62
7
  6
CONTINUOUS
370
-3
390
F
  0
LAYER
  5
1FA
100
AcDbSymbolTableRecord
100
AcDbLayerTableRecord
  2
DEFAULT_1
 70
0
 62
7
  6
CENTER
370
-3
390
F
  0
LAYER
  5
1FB
100
AcDbSymbolTableRecord
100
AcDbLayerTableRecord
  2
DEFAULT_2
 70
0
 62
8
  6
HIDDEN
370
-3
390
F
  0
LAYER
  5
1FC
100
AcDbSymbolTableRecord
100
AcDbLayerTableRecord
  2
DEFAULT_3
 70
0
 62
7
  6
PHANTOM
370
-3
390
F
  0
LAYER
  5
1FD
100
AcDbSymbolTableRecord
100
AcDbLayerTableRecord
  2
01___PRT_ALL_DTM_PLN
 70
0
 62
7
  6
CONTINUOUS
370
-3
390
F
  0
LAYER
  5
1FE
100
AcDbSymbolTableRecord
100
AcDbLayerTableRecord
  2
01___PRT_DEF_DTM_PLN
 70
0
 62
7
  6
CONTINUOUS
370
-3
390
F
  0
LAYER
  5
1FF
100
AcDbSymbolTableRecord
100
AcDbLayerTableRecord
  2
02___PRT_ALL_AXES
 70
0
 62
7
  6
CONTINUOUS
370
-3
390
F
  0
LAYER
  5
200
100
AcDbSymbolTableRecord
100
AcDbLayerTableRecord
  2
03___PRT_ALL_CURVES
 70
0
 62
7
  6
CONTINUOUS
370
-3
390
F
  0
LAYER
  5
201
100
AcDbSymbolTableRecord
100
AcDbLayerTableRecord
  2
04___PRT_ALL_DTM_PNT
 70
0
 62
7
  6
CONTINUOUS
370
-3
390
F
  0
LAYER
  5
202
100
AcDbSymbolTableRecord
100
AcDbLayerTableRecord
  2
05___PRT_ALL_DTM_CSYS
 70
0
 62
7
  6
CONTINUOUS
370
-3
390
F
  0
LAYER
  5
203
100
AcDbSymbolTableRecord
100
AcDbLayerTableRecord
  2
05___PRT_DEF_DTM_CSYS
 70
0
 62
7
  6
CONTINUOUS
370
-3
390
F
  0
LAYER
  5
204
100
AcDbSymbolTableRecord
100
AcDbLayerTableRecord
  2
06___PRT_ALL_SURFS
 70
0
 62
7
  6
CONTINUOUS
370
-3
390
F
  0
LAYER
  5
205
100
AcDbSymbolTableRecord
100
AcDbLayerTableRecord
  2
1_ALL_PLANES
 70
0
 62
7
  6
CONTINUOUS
370
-3
390
F
  0
LAYER
  5
206
100
AcDbSymbolTableRecord
100
AcDbLayerTableRecord
  2
1__DEF_ASM_PLN
 70
0
 62
7
  6
CONTINUOUS
370
-3
390
F
  0
LAYER
  5
207
100
AcDbSymbolTableRecord
100
AcDbLayerTableRecord
  2
1__DEF_PLANES
 70
0
 62
7
  6
CONTINUOUS
370
-3
390
F
  0
LAYER
  5
208
100
AcDbSymbolTableRecord
100
AcDbLayerTableRecord
  2
2_ALL_CSYS
 70
0
 62
7
  6
CONTINUOUS
370
-3
390
F
  0
LAYER
  5
209
100
AcDbSymbolTableRecord
100
AcDbLayerTableRecord
  2
2__DEF_ASM_CSYS
 70
0
 62
7
  6
CONTINUOUS
370
-3
390
F
  0
LAYER
  5
20A
100
AcDbSymbolTableRecord
100
AcDbLayerTableRecord
  2
2__DEF_CSYS
 70
0
 62
7
  6
CONTINUOUS
370
-3
390
F
  0
LAYER
  5
20B
100
AcDbSymbolTableRecord
100
AcDbLayerTableRecord
  2
ALL_AXES
 70
0
 62
7
  6
CONTINUOUS
370
-3
390
F
  0
LAYER
  5
20C
100
AcDbSymbolTableRecord
100
AcDbLayerTableRecord
  2
ALL_CSYS
 70
0
 62
7
  6
CONTINUOUS
370
-3
390
F
  0
LAYER
  5
20D
100
AcDbSymbolTableRecord
100
AcDbLayerTableRecord
  2
ALL_CURVES
 70
0
 62
7
  6
CONTINUOUS
370
-3
390
F
  0
LAYER
  5
20E
100
AcDbSymbolTableRecord
100
AcDbLayerTableRecord
  2
ALL_FEATURES
 70
0
 62
7
  6
CONTINUOUS
370
-3
390
F
  0
LAYER
  5
20F
100
AcDbSymbolTableRecord
100
AcDbLayerTableRecord
  2
ALL_PLANES
 70
0
 62
7
  6
CONTINUOUS
370
-3
390
F
  0
LAYER
  5
210
100
AcDbSymbolTableRecord
100
AcDbLayerTableRecord
  2
ALL_POINTS
 70
0
 62
7
  6
CONTINUOUS
370
-3
390
F
  0
LAYER
  5
211
100
AcDbSymbolTableRecord
100
AcDbLayerTableRecord
  2
ALL_SURFS
 70
0
 62
7
  6
CONTINUOUS
370
-3
390
F
  0
LAYER
  5
212
100
AcDbSymbolTableRecord
100
AcDbLayerTableRecord
  2
COPIA_GEOM
 70
0
 62
7
  6
CONTINUOUS
370
-3
390
F
  0
LAYER
  5
213
100
AcDbSymbolTableRecord
100
AcDbLayerTableRecord
  2
COPIA_GEOM_EST
 70
0
 62
7
  6
CONTINUOUS
370
-3
390
F
  0
LAYER
  5
214
100
AcDbSymbolTableRecord
100
AcDbLayerTableRecord
  2
FILETTI
 70
0
 62
7
  6
CONTINUOUS
370
-3
390
F
  0
LAYER
  5
215
100
AcDbSymbolTableRecord
100
AcDbLayerTableRecord
  2
GALATEA_RIC_29-03-16_NO_RIT
 70
0
 62
7
  6
CONTINUOUS
370
-3
390
F
  0
LAYER
  5
216
100
AcDbSymbolTableRecord
100
AcDbLayerTableRecord
  2
INTFCLR_21289
 70
0
 62
7
  6
CONTINUOUS
370
-3
390
F
  0
LAYER
  5
217
100
AcDbSymbolTableRecord
100
AcDbLayerTableRecord
  2
INTFCLR_23153
 70
0
 62
7
  6
CONTINUOUS
370
-3
390
F
  0
LAYER
  5
218
100
AcDbSymbolTableRecord
100
AcDbLayerTableRecord
  2
INTFCLR_23555
 70
0
 62
7
  6
CONTINUOUS
370
-3
390
F
  0
LAYER
  5
219
100
AcDbSymbolTableRecord
100
AcDbLayerTableRecord
  2
INTFCLR_23861
 70
0
 62
7
  6
CONTINUOUS
370
-3
390
F
  0
LAYER
  5
21A
100
AcDbSymbolTableRecord
100
AcDbLayerTableRecord
  2
INTFCLR_24253
 70
0
 62
7
  6
CONTINUOUS
370
-3
390
F
  0
LAYER
  5
21B
100
AcDbSymbolTableRecord
100
AcDbLayerTableRecord
  2
INTFCLR_24551
 70
0
 62
7
  6
CONTINUOUS
370
-3
390
F
  0
LAYER
  5
21C
100
AcDbSymbolTableRecord
100
AcDbLayerTableRecord
  2
INTFCLR_24973
 70
0
 62
7
  6
CONTINUOUS
370
-3
390
F
  0
LAYER
  5
21D
100
AcDbSymbolTableRecord
100
AcDbLayerTableRecord
  2
INTFCLR_25397
 70
0
 62
7
  6
CONTINUOUS
370
-3
390
F
  0
LAYER
  5
21E
100
AcDbSymbolTableRecord
100
AcDbLayerTableRecord
  2
NONE
 70
0
 62
7
  6
CONTINUOUS
370
-3
390
F
  0
LAYER
  5
21F
100
AcDbSymbolTableRecord
100
AcDbLayerTableRecord
  2
NOTE
 70
0
 62
7
  6
CONTINUOUS
370
-3
390
F
  0
LAYER
  5
220
100
AcDbSymbolTableRecord
100
AcDbLayerTableRecord
  2
SHELL0
 70
0
 62
7
  6
CONTINUOUS
370
-3
390
F
  0
LAYER
  5
221
100
AcDbSymbolTableRecord
100
AcDbLayerTableRecord
  2
SHELL1
 70
0
 62
7
  6
CONTINUOUS
370
-3
390
F
  0
LAYER
  5
222
100
AcDbSymbolTableRecord
100
AcDbLayerTableRecord
  2
SHELL2
 70
0
 62
7
  6
CONTINUOUS
370
-3
390
F
  0
LAYER
  5
223
100
AcDbSymbolTableRecord
100
AcDbLayerTableRecord
  2
SHELL3
 70
0
 62
7
  6
CONTINUOUS
370
-3
390
F
  0
LAYER
  5
224
100
AcDbSymbolTableRecord
100
AcDbLayerTableRecord
  2
SHELL4
 70
0
 62
7
  6
CONTINUOUS
370
-3
390
F
  0
LAYER
  5
225
100
AcDbSymbolTableRecord
100
AcDbLayerTableRecord
  2
SHELL5
 70
0
 62
7
  6
CONTINUOUS
370
-3
390
F
  0
LAYER
  5
226
100
AcDbSymbolTableRecord
100
AcDbLayerTableRecord
  2
SHELL6
 70
0
 62
7
  6
CONTINUOUS
370
-3
390
F
  0
LAYER
  5
227
100
AcDbSymbolTableRecord
100
AcDbLayerTableRecord
  2
SHELL7
 70
0
 62
7
  6
CONTINUOUS
370
-3
390
F
  0
ENDTAB
  0
TABLE
  2
STYLE
  5
3
100
AcDbSymbolTable
 70
1
  0
STYLE
  5
11
100
AcDbSymbolTableRecord
100
AcDbTextStyleTableRecord
  2
STANDARD
 70
0
 40
0.0
 41
1.0
 50
0.0
 71
0
 42
0.2
  3
trium.ttf
  4

  0
STYLE
  5
228
100
AcDbSymbolTableRecord
100
AcDbTextStyleTableRecord
  2
TEXTSTYLE_1
 70
0
 40
0.0
 41
0.8
 50
0.0
 71
0
 42
0.2
  3
gdt
  4

  0
ENDTAB
  0
TABLE
  2
VIEW
  5
6
100
AcDbSymbolTable
 70
0
  0
ENDTAB
  0
TABLE
  2
UCS
  5
7
100
AcDbSymbolTable
 70
0
  0
ENDTAB
  0
TABLE
  2
APPID
  5
9
100
AcDbSymbolTable
 70
1
  0
APPID
  5
229
100
AcDbSymbolTableRecord
100
AcDbRegAppTableRecord
  2
ACAD
 70
0
  0
ENDTAB
  0
TABLE
  2
BLOCK_RECORD
  5
1
100
AcDbSymbolTable
 70
0
  0
BLOCK_RECORD
  5
22A
100
AcDbSymbolTableRecord
100
AcDbBlockTableRecord
  2
*Model_Space
  0
BLOCK_RECORD
  5
22B
100
AcDbSymbolTableRecord
100
AcDbBlockTableRecord
  2
*Paper_Space
  0
BLOCK_RECORD
  5
22C
100
AcDbSymbolTableRecord
100
AcDbBlockTableRecord
  2
_FILLED
  0
BLOCK_RECORD
  5
22D
100
AcDbSymbolTableRecord
100
AcDbBlockTableRecord
  2
*D0
  0
BLOCK_RECORD
  5
22E
100
AcDbSymbolTableRecord
100
AcDbBlockTableRecord
  2
*D1
  0
BLOCK_RECORD
  5
22F
100
AcDbSymbolTableRecord
100
AcDbBlockTableRecord
  2
*D2
  0
BLOCK_RECORD
  5
230
100
AcDbSymbolTableRecord
100
AcDbBlockTableRecord
  2
*D3
  0
BLOCK_RECORD
  5
231
100
AcDbSymbolTableRecord
100
AcDbBlockTableRecord
  2
*T1
  0
ENDTAB
  0
TABLE
  2
DIMSTYLE
  5
A
100
AcDbSymbolTable
 70
1
100
AcDbDimStyleTable
 71
0
  0
DIMSTYLE
105
232
100
AcDbSymbolTableRecord
100
AcDbDimStyleTableRecord
  2
STANDARD
 70
0
  3

  4

 40
1.0
 41
4.0
 42
1.0
 43
0.38
 44
1.0
 45
0.0
 46
0.0
 47
0.001
 48
0.001
140
3.0
141
0.09
142
0.0
143
25.4
144
1.0
145
0.0
146
1.0
147
0.625
 71
1.0
 72
0.0
 73
0
 74
0
 75
0
 76
0
 77
1
 78
8
 79
2
170
0
171
2
172
0
173
0
174
0
175
0
176
0
177
0
178
0
270
2
179
3
271
3
272
3
273
2
274
2
275
0
280
0
281
0
282
0
283
1
284
8
285
0
286
0
287
3
288
0
340
11
278
46
341
22C
342
22C
343
22C
344
22C
  0
DIMSTYLE
105
233
100
AcDbSymbolTableRecord
100
AcDbDimStyleTableRecord
  2
DIMSTYLE_1
 70
0
  3

  4

 40
1.0
 41
4.0
 42
1.0
 43
0.38
 44
1.0
 45
0.0
 46
0.0
 47
0.5
 48
0.5
140
3.0
141
0.09
142
0.0
143
25.4
144
1.0
145
0.0
146
1.0
147
0.75
 71
0.0
 72
0.0
 73
0
 74
0
 75
0
 76
0
 77
1
 78
8
 79
2
170
0
171
2
172
0
173
0
174
0
175
0
176
0
177
0
178
0
270
2
179
0
271
0
272
0
273
2
274
2
275
0
280
0
281
0
282
0
283
1
284
8
285
0
286
0
287
3
288
0
340
11
278
46
341
22C
342
22C
343
22C
344
22C
  0
DIMSTYLE
105
234
100
AcDbSymbolTableRecord
100
AcDbDimStyleTableRecord
  2
DIMSTYLE_2
 70
0
  3

  4

 40
1.0
 41
4.0
 42
1.0
 43
0.38
 44
1.0
 45
0.0
 46
0.0
 47
0.5
 48
0.5
140
3.0
141
0.09
142
0.0
143
25.4
144
1.0
145
0.0
146
1.0
147
1.5
 71
0.0
 72
0.0
 73
1
 74
1
 75
0
 76
0
 77
0
 78
8
 79
2
170
0
171
2
172
0
173
0
174
0
175
0
176
0
177
0
178
0
270
2
179
0
271
0
272
0
273
2
274
2
275
0
280
0
281
0
282
0
283
1
284
8
285
0
286
0
287
3
288
0
340
11
278
46
341
22C
342
22C
343
22C
344
22C
  0
ENDTAB
  0
ENDSEC
  0
SECTION
  2
BLOCKS
  0
BLOCK
  5
20
100
AcDbEntity
  8
0
100
AcDbBlockBegin
  2
*Model_Space
 70
0
 10
0.0
 20
0.0
 30
0.0
  3
*Model_Space
  1

  0
ENDBLK
  5
21
100
AcDbEntity
  8
0
100
AcDbBlockEnd
  0
BLOCK
  5
1C
100
AcDbEntity
  8
0
100
AcDbBlockBegin
  2
*Paper_Space
 70
0
 10
0.0
 20
0.0
 30
0.0
  3
*Paper_Space
  1

  0
ENDBLK
  5
1D
100
AcDbEntity
  8
0
100
AcDbBlockEnd
  0
BLOCK
  5
235
100
AcDbEntity
  8
0
100
AcDbBlockBegin
  2
_FILLED
 70
64
 10
0.0
 20
0.0
  3
_FILLED
  1

  0
SOLID
  5
236
100
AcDbEntity
  8
0
  6
BYBLOCK
 62
0
100
AcDbTrace
 10
0.0
 20
0.0
 11
-1.0
 21
0.1875
 12
-1.0
 22
-0.1875
 13
-1.0
 23
-0.1875
  0
ENDBLK
  5
237
100
AcDbEntity
  8
0
  6
BYBLOCK
 62
0
100
AcDbBlockEnd
  0
BLOCK
  5
238
100
AcDbEntity
  8
0
100
AcDbBlockBegin
 62
2
  6
CONTINUOUS
  2
*D0
 70
65
 10
0.0
 20
0.0
  3
*D0
  1

  0
MTEXT
  5
239
100
AcDbEntity
  8
0
100
AcDbMText
 62
2
  6
CONTINUOUS
  7
STANDARD
 71
2
 72
1
 10
791.7320981804
 20
817.3048622009
 30
0.0
 11
1.0
 21
0.0
 31
0.0
 73
2
 44
0.9
  1
163
 40
3.0
 41
6.9
  0
LINE
  5
23A
100
AcDbEntity
  8
0
100
AcDbLine
 62
2
  6
CONTINUOUS
 10
710.0637884523
 20
803.3010741633
 11
710.0637884523
 21
814.5548622009
  0
LINE
  5
23B
100
AcDbEntity
  8
0
100
AcDbLine
 62
2
  6
CONTINUOUS
 10
873.4004079085
 20
802.2725362654
 11
873.4004079085
 21
814.5548622009
  0
LINE
  5
23C
100
AcDbEntity
  8
0
100
AcDbLine
 62
2
  6
CONTINUOUS
 10
710.0637884523
 20
813.5548622009
 11
791.7320981804
 21
813.5548622009
  0
LINE
  5
23D
100
AcDbEntity
  8
0
100
AcDbLine
 62
2
  6
CONTINUOUS
 10
873.4004079085
 20
813.5548622009
 11
791.7320981804
 21
813.5548622009
  0
INSERT
  5
23E
100
AcDbEntity
  8
0
100
AcDbBlockReference
 62
2
  6
CONTINUOUS
  2
_FILLED
 10
710.0637884523
 20
813.5548622009
 41
4.0
 42
4.0
 43
4.0
 50
180.0
  0
INSERT
  5
23F
100
AcDbEntity
  8
0
100
AcDbBlockReference
 62
2
  6
CONTINUOUS
  2
_FILLED
 10
873.4004079085
 20
813.5548622009
 41
4.0
 42
4.0
 43
4.0
  0
ENDBLK
  5
240
100
AcDbEntity
  8
0
  6
BYBLOCK
 62
0
100
AcDbBlockEnd
  0
BLOCK
  5
241
100
AcDbEntity
  8
0
100
AcDbBlockBegin
 62
2
  6
CONTINUOUS
  2
*D1
 70
65
 10
0.0
 20
0.0
  3
*D1
  1

  0
MTEXT
  5
242
100
AcDbEntity
  8
0
100
AcDbMText
 62
2
  6
CONTINUOUS
  7
STANDARD
 71
2
 72
1
 10
564.7490217645
 20
816.8888689411
 30
0.0
 11
1.0
 21
0.0
 31
0.0
 73
2
 44
0.9
  1
200
 40
3.0
 41
6.9
  0
LINE
  5
243
100
AcDbEntity
  8
0
100
AcDbLine
 62
2
  6
CONTINUOUS
 10
467.6164968031
 20
729.1313628473
 11
467.6164968031
 21
814.1388689411
  0
LINE
  5
244
100
AcDbEntity
  8
0
100
AcDbLine
 62
2
  6
CONTINUOUS
 10
667.4467207125
 20
729.1313628473
 11
667.4467207125
 21
814.1388689411
  0
LINE
  5
245
100
AcDbEntity
  8
0
100
AcDbLine
 62
2
  6
CONTINUOUS
 10
467.6164968031
 20
813.1388689411
 11
567.5316087578
 21
813.1388689411
  0
LINE
  5
246
100
AcDbEntity
  8
0
100
AcDbLine
 62
2
  6
CONTINUOUS
 10
667.4467207125
 20
813.1388689411
 11
567.5316087578
 21
813.1388689411
  0
INSERT
  5
247
100
AcDbEntity
  8
0
100
AcDbBlockReference
 62
2
  6
CONTINUOUS
  2
_FILLED
 10
467.6164968031
 20
813.1388689411
 41
4.0
 42
4.0
 43
4.0
 50
180.0
  0
INSERT
  5
248
100
AcDbEntity
  8
0
100
AcDbBlockReference
 62
2
  6
CONTINUOUS
  2
_FILLED
 10
667.4467207125
 20
813.1388689411
 41
4.0
 42
4.0
 43
4.0
  0
ENDBLK
  5
249
100
AcDbEntity
  8
0
  6
BYBLOCK
 62
0
100
AcDbBlockEnd
  0
BLOCK
  5
24A
100
AcDbEntity
  8
0
100
AcDbBlockBegin
 62
2
  6
CONTINUOUS
  2
*D2
 70
65
 10
0.0
 20
0.0
  3
*D2
  1

  0
MTEXT
  5
24B
100
AcDbEntity
  8
0
100
AcDbMText
 62
2
  6
CONTINUOUS
  7
STANDARD
 71
2
 72
1
 10
677.2669687855
 20
728.4640752479
 30
0.0
 11
0.0
 21
1.0
 31
0.0
 73
2
 44
0.9
  1
142
 40
3.0
 41
6.9
  0
LINE
  5
24C
100
AcDbEntity
  8
0
100
AcDbLine
 62
2
  6
CONTINUOUS
 10
568.5316087536
 20
799.6253959366
 11
682.0169687855
 21
799.6253959366
  0
LINE
  5
24D
100
AcDbEntity
  8
0
100
AcDbLine
 62
2
  6
CONTINUOUS
 10
568.5316087578
 20
657.3027545592
 11
682.0169687855
 21
657.3027545592
  0
LINE
  5
24E
100
AcDbEntity
  8
0
100
AcDbLine
 62
2
  6
CONTINUOUS
 10
681.0169687855
 20
799.6253959366
 11
681.0169687855
 21
728.4640752479
  0
LINE
  5
24F
100
AcDbEntity
  8
0
100
AcDbLine
 62
2
  6
CONTINUOUS
 10
681.0169687855
 20
657.3027545592
 11
681.0169687855
 21
728.4640752479
  0
INSERT
  5
250
100
AcDbEntity
  8
0
100
AcDbBlockReference
 62
2
  6
CONTINUOUS
  2
_FILLED
 10
681.0169687855
 20
799.6253959366
 41
4.0
 42
4.0
 43
4.0
 50
90.0
  0
INSERT
  5
251
100
AcDbEntity
  8
0
100
AcDbBlockReference
 62
2
  6
CONTINUOUS
  2
_FILLED
 10
681.0169687855
 20
657.3027545592
 41
4.0
 42
4.0
 43
4.0
 50
270.0
  0
ENDBLK
  5
252
100
AcDbEntity
  8
0
  6
BYBLOCK
 62
0
100
AcDbBlockEnd
  0
BLOCK
  5
253
100
AcDbEntity
  8
0
100
AcDbBlockBegin
 62
2
  6
CONTINUOUS
  2
*D3
 70
65
 10
0.0
 20
0.0
  3
*D3
  1

  0
MTEXT
  5
254
100
AcDbEntity
  8
0
100
AcDbMText
 62
2
  6
CONTINUOUS
  7
STANDARD
 71
2
 72
1
 10
777.0528873285
 20
798.9046804615
 30
0.0
 11
1.0
 21
0.0
 31
0.0
 73
2
 44
0.9
  1
45\fgdt;{\fgdt;~}
 40
3.0
 41
6.6
  0
LINE
  5
255
100
AcDbEntity
  8
0
100
AcDbLine
 62
2
  6
CONTINUOUS
 10
710.0637884523
 20
804.54454256
 11
710.0637884523
 21
811.7333398147
  0
ARC
  5
256
100
AcDbEntity
  8
0
100
AcDbCircle
 62
2
  6
CONTINUOUS
 10
710.0637884523
 20
635.7272718829
 40
175.0060679317
100
AcDbArc
 50
44.9878264097
 51
64.1559855753
  0
ARC
  5
257
100
AcDbEntity
  8
0
100
AcDbCircle
 62
2
  6
CONTINUOUS
 10
710.0637884523
 20
635.7272718829
 40
175.0060679317
100
AcDbArc
 50
70.7530393724
 51
90.0
  0
SOLID
  5
258
100
AcDbEntity
  8
0
100
AcDbTrace
 62
2
  6
CONTINUOUS
 10
830.4537354793
 20
761.7092362913
 11
833.8380556799
 21
759.4489538356
 12
831.5024331373
 22
762.7817255557
 13
831.5024331373
 23
762.7817255557
  0
SOLID
  5
259
100
AcDbEntity
  8
0
100
AcDbTrace
 62
2
  6
CONTINUOUS
 10
714.0720981935
 20
811.4375791334
 11
710.0637884523
 21
810.7333398147
 12
714.0549563039
 22
809.9376770847
 13
714.0549563039
 23
809.9376770847
  0
ENDBLK
  5
25A
100
AcDbEntity
  8
0
  6
BYBLOCK
 62
0
100
AcDbBlockEnd
  0
BLOCK
  5
25B
100
AcDbEntity
  8
0
100
AcDbBlockBegin
  2
*T1
 70
1
 10
0.0
 20
0.0
  3
*T1
  1

  0
LINE
  5
25C
100
AcDbEntity
  8
0
100
AcDbLine
 62
2
  6
CONTINUOUS
 10
0.0
 20
0.0
 11
161.28
 21
0.0
  0
LINE
  5
25D
100
AcDbEntity
  8
0
100
AcDbLine
 62
2
  6
CONTINUOUS
 10
0.0
 20
0.0
 11
0.0
 21
-84.0
  0
LINE
  5
25E
100
AcDbEntity
  8
0
100
AcDbLine
 62
2
  6
CONTINUOUS
 10
0.0
 20
-5.6
 11
161.28
 21
-5.6
  0
LINE
  5
25F
100
AcDbEntity
  8
0
100
AcDbLine
 62
2
  6
CONTINUOUS
 10
0.0
 20
-11.2
 11
161.28
 21
-11.2
  0
LINE
  5
260
100
AcDbEntity
  8
0
100
AcDbLine
 62
2
  6
CONTINUOUS
 10
0.0
 20
-16.8
 11
161.28
 21
-16.8
  0
LINE
  5
261
100
AcDbEntity
  8
0
100
AcDbLine
 62
2
  6
CONTINUOUS
 10
0.0
 20
-22.4
 11
161.28
 21
-22.4
  0
LINE
  5
262
100
AcDbEntity
  8
0
100
AcDbLine
 62
2
  6
CONTINUOUS
 10
0.0
 20
-28.0
 11
161.28
 21
-28.0
  0
LINE
  5
263
100
AcDbEntity
  8
0
100
AcDbLine
 62
2
  6
CONTINUOUS
 10
0.0
 20
-33.6
 11
161.28
 21
-33.6
  0
LINE
  5
264
100
AcDbEntity
  8
0
100
AcDbLine
 62
2
  6
CONTINUOUS
 10
0.0
 20
-39.2
 11
161.28
 21
-39.2
  0
LINE
  5
265
100
AcDbEntity
  8
0
100
AcDbLine
 62
2
  6
CONTINUOUS
 10
0.0
 20
-44.8
 11
161.28
 21
-44.8
  0
LINE
  5
266
100
AcDbEntity
  8
0
100
AcDbLine
 62
2
  6
CONTINUOUS
 10
0.0
 20
-50.4
 11
161.28
 21
-50.4
  0
LINE
  5
267
100
AcDbEntity
  8
0
100
AcDbLine
 62
2
  6
CONTINUOUS
 10
0.0
 20
-56.0
 11
161.28
 21
-56.0
  0
LINE
  5
268
100
AcDbEntity
  8
0
100
AcDbLine
 62
2
  6
CONTINUOUS
 10
0.0
 20
-61.6
 11
161.28
 21
-61.6
  0
LINE
  5
269
100
AcDbEntity
  8
0
100
AcDbLine
 62
2
  6
CONTINUOUS
 10
0.0
 20
-67.2
 11
161.28
 21
-67.2
  0
LINE
  5
26A
100
AcDbEntity
  8
0
100
AcDbLine
 62
2
  6
CONTINUOUS
 10
0.0
 20
-72.8
 11
161.28
 21
-72.8
  0
LINE
  5
26B
100
AcDbEntity
  8
0
100
AcDbLine
 62
2
  6
CONTINUOUS
 10
0.0
 20
-78.4
 11
161.28
 21
-78.4
  0
LINE
  5
26C
100
AcDbEntity
  8
0
100
AcDbLine
 62
2
  6
CONTINUOUS
 10
0.0
 20
-84.0
 11
161.28
 21
-84.0
  0
LINE
  5
26D
100
AcDbEntity
  8
0
100
AcDbLine
 62
2
  6
CONTINUOUS
 10
8.96
 20
0.0
 11
8.96
 21
-84.0
  0
LINE
  5
26E
100
AcDbEntity
  8
0
100
AcDbLine
 62
2
  6
CONTINUOUS
 10
49.28
 20
0.0
 11
49.28
 21
-84.0
  0
LINE
  5
26F
100
AcDbEntity
  8
0
100
AcDbLine
 62
2
  6
CONTINUOUS
 10
147.84
 20
0.0
 11
147.84
 21
-84.0
  0
LINE
  5
270
100
AcDbEntity
  8
0
100
AcDbLine
 62
2
  6
CONTINUOUS
 10
161.28
 20
0.0
 11
161.28
 21
-84.0
  0
MTEXT
  5
271
100
AcDbEntity
  8
NOTE
100
AcDbMText
 62
2
  6
CONTINUOUS
  7
STANDARD
 71
1
 72
1
 10
1.12
 20
-1.4
 30
0.0
 11
1.0
 21
0.0
 31
0.0
 73
2
 44
0.9
  1
N°
 40
2.8
 41
10.0385185185
  0
MTEXT
  5
272
100
AcDbEntity
  8
NOTE
100
AcDbMText
 62
2
  6
CONTINUOUS
  7
STANDARD
 71
1
 72
1
 10
10.08
 20
-1.4
 30
0.0
 11
1.0
 21
0.0
 31
0.0
 73
2
 44
0.9
  1
Codice
 40
2.8
 41
24.5155555556
  0
MTEXT
  5
273
100
AcDbEntity
  8
NOTE
100
AcDbMText
 62
2
  6
CONTINUOUS
  7
STANDARD
 71
1
 72
1
 10
50.4
 20
-1.4
 30
0.0
 11
1.0
 21
0.0
 31
0.0
 73
2
 44
0.9
  1
Descrizione
 40
2.8
 41
41.1496296296
  0
MTEXT
  5
274
100
AcDbEntity
  8
NOTE
100
AcDbMText
 62
2
  6
CONTINUOUS
  7
STANDARD
 71
1
 72
1
 10
148.96
 20
-1.4
 30
0.0
 11
1.0
 21
0.0
 31
0.0
 73
2
 44
0.9
  1
Q.tà
 40
2.8
 41
14.9125925926
  0
MTEXT
  5
275
100
AcDbEntity
  8
NOTE
100
AcDbMText
 62
2
  6
CONTINUOUS
  7
STANDARD
 71
1
 72
1
 10
1.12
 20
-7.0
 30
0.0
 11
1.0
 21
0.0
 31
0.0
 73
2
 44
0.9
  1
1
 40
2.8
 41
4.2933333333
  0
MTEXT
  5
276
100
AcDbEntity
  8
NOTE
100
AcDbMText
 62
2
  6
CONTINUOUS
  7
STANDARD
 71
1
 72
1
 10
10.08
 20
-7.0
 30
0.0
 11
1.0
 21
0.0
 31
0.0
 73
2
 44
0.9
  1
D9007002
 40
2.8
 41
35.6533333333
  0
MTEXT
  5
277
100
AcDbEntity
  8
NOTE
100
AcDbMText
 62
2
  6
CONTINUOUS
  7
STANDARD
 71
1
 72
1
 10
50.4
 20
-7.0
 30
0.0
 11
1.0
 21
0.0
 31
0.0
 73
2
 44
0.9
  1
Carter di chiusura
 40
2.8
 41
62.9274074074
  0
MTEXT
  5
278
100
AcDbEntity
  8
NOTE
100
AcDbMText
 62
2
  6
CONTINUOUS
  7
STANDARD
 71
1
 72
1
 10
148.96
 20
-7.0
 30
0.0
 11
1.0
 21
0.0
 31
0.0
 73
2
 44
0.9
  1
1
 40
2.8
 41
4.2933333333
  0
MTEXT
  5
279
100
AcDbEntity
  8
NOTE
100
AcDbMText
 62
2
  6
CONTINUOUS
  7
STANDARD
 71
1
 72
1
 10
1.12
 20
-12.6
 30
0.0
 11
1.0
 21
0.0
 31
0.0
 73
2
 44
0.9
  1
2
 40
2.8
 41
4.2933333333
  0
MTEXT
  5
27A
100
AcDbEntity
  8
NOTE
100
AcDbMText
 62
2
  6
CONTINUOUS
  7
STANDARD
 71
1
 72
1
 10
10.08
 20
-12.6
 30
0.0
 11
1.0
 21
0.0
 31
0.0
 73
2
 44
0.9
  1
D9007005
 40
2.8
 41
35.6533333333
  0
MTEXT
  5
27B
100
AcDbEntity
  8
NOTE
100
AcDbMText
 62
2
  6
CONTINUOUS
  7
STANDARD
 71
1
 72
1
 10
50.4
 20
-12.6
 30
0.0
 11
1.0
 21
0.0
 31
0.0
 73
2
 44
0.9
  1
Vetrino
 40
2.8
 41
25.0755555556
  0
MTEXT
  5
27C
100
AcDbEntity
  8
NOTE
100
AcDbMText
 62
2
  6
CONTINUOUS
  7
STANDARD
 71
1
 72
1
 10
148.96
 20
-12.6
 30
0.0
 11
1.0
 21
0.0
 31
0.0
 73
2
 44
0.9
  1
1
 40
2.8
 41
4.2933333333
  0
MTEXT
  5
27D
100
AcDbEntity
  8
NOTE
100
AcDbMText
 62
2
  6
CONTINUOUS
  7
STANDARD
 71
1
 72
1
 10
1.12
 20
-18.2
 30
0.0
 11
1.0
 21
0.0
 31
0.0
 73
2
 44
0.9
  1
3
 40
2.8
 41
4.2933333333
  0
MTEXT
  5
27E
100
AcDbEntity
  8
NOTE
100
AcDbMText
 62
2
  6
CONTINUOUS
  7
STANDARD
 71
1
 72
1
 10
10.08
 20
-18.2
 30
0.0
 11
1.0
 21
0.0
 31
0.0
 73
2
 44
0.9
  1
860100601510
 40
2.8
 41
51.52
  0
MTEXT
  5
27F
100
AcDbEntity
  8
NOTE
100
AcDbMText
 62
2
  6
CONTINUOUS
  7
STANDARD
 71
1
 72
1
 10
50.4
 20
-18.2
 30
0.0
 11
1.0
 21
0.0
 31
0.0
 73
2
 44
0.9
  1
Vite TSC UNI 7688 M3x6 INOX
 40
2.8
 41
109.7392592593
  0
MTEXT
  5
280
100
AcDbEntity
  8
NOTE
100
AcDbMText
 62
2
  6
CONTINUOUS
  7
STANDARD
 71
1
 72
1
 10
148.96
 20
-18.2
 30
0.0
 11
1.0
 21
0.0
 31
0.0
 73
2
 44
0.9
  1
3
 40
2.8
 41
4.2933333333
  0
MTEXT
  5
281
100
AcDbEntity
  8
NOTE
100
AcDbMText
 62
2
  6
CONTINUOUS
  7
STANDARD
 71
1
 72
1
 10
1.12
 20
-23.8
 30
0.0
 11
1.0
 21
0.0
 31
0.0
 73
2
 44
0.9
  1
4
 40
2.8
 41
4.2933333333
  0
MTEXT
  5
282
100
AcDbEntity
  8
NOTE
100
AcDbMText
 62
2
  6
CONTINUOUS
  7
STANDARD
 71
1
 72
1
 10
10.08
 20
-23.8
 30
0.0
 11
1.0
 21
0.0
 31
0.0
 73
2
 44
0.9
  1
860100950110
 40
2.8
 41
51.52
  0
MTEXT
  5
283
100
AcDbEntity
  8
NOTE
100
AcDbMText
 62
2
  6
CONTINUOUS
  7
STANDARD
 71
1
 72
1
 10
50.4
 20
-23.8
 30
0.0
 11
1.0
 21
0.0
 31
0.0
 73
2
 44
0.9
  1
Vite TSCE M4x10 sott.dent. INOX
 40
2.8
 41
118.9274074074
  0
MTEXT
  5
284
100
AcDbEntity
  8
NOTE
100
AcDbMText
 62
2
  6
CONTINUOUS
  7
STANDARD
 71
1
 72
1
 10
148.96
 20
-23.8
 30
0.0
 11
1.0
 21
0.0
 31
0.0
 73
2
 44
0.9
  1
2
 40
2.8
 41
4.2933333333
  0
MTEXT
  5
285
100
AcDbEntity
  8
NOTE
100
AcDbMText
 62
2
  6
CONTINUOUS
  7
STANDARD
 71
1
 72
1
 10
1.12
 20
-29.4
 30
0.0
 11
1.0
 21
0.0
 31
0.0
 73
2
 44
0.9
  1
5
 40
2.8
 41
4.2933333333
  0
MTEXT
  5
286
100
AcDbEntity
  8
NOTE
100
AcDbMText
 62
2
  6
CONTINUOUS
  7
STANDARD
 71
1
 72
1
 10
10.08
 20
-29.4
 30
0.0
 11
1.0
 21
0.0
 31
0.0
 73
2
 44
0.9
  1
860300300213
 40
2.8
 41
51.52
  0
MTEXT
  5
287
100
AcDbEntity
  8
NOTE
100
AcDbMText
 62
2
  6
CONTINUOUS
  7
STANDARD
 71
1
 72
1
 10
50.4
 20
-29.4
 30
0.0
 11
1.0
 21
0.0
 31
0.0
 73
2
 44
0.9
  1
Vite TCTT M3x6 sott.dent.zinc
 40
2.8
 41
106.5866666667
  0
MTEXT
  5
288
100
AcDbEntity
  8
NOTE
100
AcDbMText
 62
2
  6
CONTINUOUS
  7
STANDARD
 71
1
 72
1
 10
148.96
 20
-29.4
 30
0.0
 11
1.0
 21
0.0
 31
0.0
 73
2
 44
0.9
  1
1
 40
2.8
 41
4.2933333333
  0
MTEXT
  5
289
100
AcDbEntity
  8
NOTE
100
AcDbMText
 62
2
  6
CONTINUOUS
  7
STANDARD
 71
1
 72
1
 10
1.12
 20
-35.0
 30
0.0
 11
1.0
 21
0.0
 31
0.0
 73
2
 44
0.9
  1
6
 40
2.8
 41
4.2933333333
  0
MTEXT
  5
28A
100
AcDbEntity
  8
NOTE
100
AcDbMText
 62
2
  6
CONTINUOUS
  7
STANDARD
 71
1
 72
1
 10
10.08
 20
-35.0
 30
0.0
 11
1.0
 21
0.0
 31
0.0
 73
2
 44
0.9
  1
D9007008
 40
2.8
 41
35.6533333333
  0
MTEXT
  5
28B
100
AcDbEntity
  8
NOTE
100
AcDbMText
 62
2
  6
CONTINUOUS
  7
STANDARD
 71
1
 72
1
 10
50.4
 20
-35.0
 30
0.0
 11
1.0
 21
0.0
 31
0.0
 73
2
 44
0.9
  1
Crossbar Garbi
 40
2.8
 41
53.4488888889
  0
MTEXT
  5
28C
100
AcDbEntity
  8
NOTE
100
AcDbMText
 62
2
  6
CONTINUOUS
  7
STANDARD
 71
1
 72
1
 10
148.96
 20
-35.0
 30
0.0
 11
1.0
 21
0.0
 31
0.0
 73
2
 44
0.9
  1
1
 40
2.8
 41
4.2933333333
  0
MTEXT
  5
28D
100
AcDbEntity
  8
NOTE
100
AcDbMText
 62
2
  6
CONTINUOUS
  7
STANDARD
 71
1
 72
1
 10
1.12
 20
-40.6
 30
0.0
 11
1.0
 21
0.0
 31
0.0
 73
2
 44
0.9
  1
7
 40
2.8
 41
4.2933333333
  0
MTEXT
  5
28E
100
AcDbEntity
  8
NOTE
100
AcDbMText
 62
2
  6
CONTINUOUS
  7
STANDARD
 71
1
 72
1
 10
10.08
 20
-40.6
 30
0.0
 11
1.0
 21
0.0
 31
0.0
 73
2
 44
0.9
  1
D9007010
 40
2.8
 41
35.6533333333
  0
MTEXT
  5
28F
100
AcDbEntity
  8
NOTE
100
AcDbMText
 62
2
  6
CONTINUOUS
  7
STANDARD
 71
1
 72
1
 10
50.4
 20
-40.6
 30
0.0
 11
1.0
 21
0.0
 31
0.0
 73
2
 44
0.9
  1
Piastra finitura USA
 40
2.8
 41
69.4192592593
  0
MTEXT
  5
290
100
AcDbEntity
  8
NOTE
100
AcDbMText
 62
2
  6
CONTINUOUS
  7
STANDARD
 71
1
 72
1
 10
148.96
 20
-40.6
 30
0.0
 11
1.0
 21
0.0
 31
0.0
 73
2
 44
0.9
  1
1
 40
2.8
 41
4.2933333333
  0
MTEXT
  5
291
100
AcDbEntity
  8
NOTE
100
AcDbMText
 62
2
  6
CONTINUOUS
  7
STANDARD
 71
1
 72
1
 10
1.12
 20
-46.2
 30
0.0
 11
1.0
 21
0.0
 31
0.0
 73
2
 44
0.9
  1
+
 40
2.8
 41
7.7362962963
  0
MTEXT
  5
292
100
AcDbEntity
  8
NOTE
100
AcDbMText
 62
2
  6
CONTINUOUS
  7
STANDARD
 71
1
 72
1
 10
10.08
 20
-46.2
 30
0.0
 11
1.0
 21
0.0
 31
0.0
 73
2
 44
0.9
  1
D9006001
 40
2.8
 41
35.6533333333
  0
MTEXT
  5
293
100
AcDbEntity
  8
NOTE
100
AcDbMText
 62
2
  6
CONTINUOUS
  7
STANDARD
 71
1
 72
1
 10
50.4
 20
-46.2
 30
0.0
 11
1.0
 21
0.0
 31
0.0
 73
2
 44
0.9
  1
Assieme corpo (con LED UL)
 40
2.8
 41
101.6918518519
  0
MTEXT
  5
294
100
AcDbEntity
  8
NOTE
100
AcDbMText
 62
2
  6
CONTINUOUS
  7
STANDARD
 71
1
 72
1
 10
148.96
 20
-46.2
 30
0.0
 11
1.0
 21
0.0
 31
0.0
 73
2
 44
0.9
  1
1
 40
2.8
 41
4.2933333333
  0
MTEXT
  5
295
100
AcDbEntity
  8
NOTE
100
AcDbMText
 62
2
  6
CONTINUOUS
  7
STANDARD
 71
1
 72
1
 10
1.12
 20
-51.8
 30
0.0
 11
1.0
 21
0.0
 31
0.0
 73
2
 44
0.9
  1
+
 40
2.8
 41
7.7362962963
  0
MTEXT
  5
296
100
AcDbEntity
  8
NOTE
100
AcDbMText
 62
2
  6
CONTINUOUS
  7
STANDARD
 71
1
 72
1
 10
10.08
 20
-51.8
 30
0.0
 11
1.0
 21
0.0
 31
0.0
 73
2
 44
0.9
  1
D9006005
 40
2.8
 41
35.6533333333
  0
MTEXT
  5
297
100
AcDbEntity
  8
NOTE
100
AcDbMText
 62
2
  6
CONTINUOUS
  7
STANDARD
 71
1
 72
1
 10
50.4
 20
-51.8
 30
0.0
 11
1.0
 21
0.0
 31
0.0
 73
2
 44
0.9
  1
Assieme staffa interna UL
 40
2.8
 41
90.7822222222
  0
MTEXT
  5
298
100
AcDbEntity
  8
NOTE
100
AcDbMText
 62
2
  6
CONTINUOUS
  7
STANDARD
 71
1
 72
1
 10
148.96
 20
-51.8
 30
0.0
 11
1.0
 21
0.0
 31
0.0
 73
2
 44
0.9
  1
1
 40
2.8
 41
4.2933333333
  0
MTEXT
  5
299
100
AcDbEntity
  8
NOTE
100
AcDbMText
 62
2
  6
CONTINUOUS
  7
STANDARD
 71
1
 72
1
 10
1.12
 20
-57.4
 30
0.0
 11
1.0
 21
0.0
 31
0.0
 73
2
 44
0.9
  1
+
 40
2.8
 41
7.7362962963
  0
MTEXT
  5
29A
100
AcDbEntity
  8
NOTE
100
AcDbMText
 62
2
  6
CONTINUOUS
  7
STANDARD
 71
1
 72
1
 10
10.08
 20
-57.4
 30
0.0
 11
1.0
 21
0.0
 31
0.0
 73
2
 44
0.9
  1
D9006006
 40
2.8
 41
35.6533333333
  0
MTEXT
  5
29B
100
AcDbEntity
  8
NOTE
100
AcDbMText
 62
2
  6
CONTINUOUS
  7
STANDARD
 71
1
 72
1
 10
50.4
 20
-57.4
 30
0.0
 11
1.0
 21
0.0
 31
0.0
 73
2
 44
0.9
  1
Assieme staffa a muro UL
 40
2.8
 41
91.0725925926
  0
MTEXT
  5
29C
100
AcDbEntity
  8
NOTE
100
AcDbMText
 62
2
  6
CONTINUOUS
  7
STANDARD
 71
1
 72
1
 10
148.96
 20
-57.4
 30
0.0
 11
1.0
 21
0.0
 31
0.0
 73
2
 44
0.9
  1
1
 40
2.8
 41
4.2933333333
  0
MTEXT
  5
29D
100
AcDbEntity
  8
0
100
AcDbMText
 62
2
  6
CONTINUOUS
  7
STANDARD
 71
1
 72
1
 10
1.12
 20
-63.0
 30
0.0
 11
1.0
 21
0.0
 31
0.0
 73
2
 44
0.9
  1
+
 40
2.8
 41
7.7362962963
  0
MTEXT
  5
29E
100
AcDbEntity
  8
0
100
AcDbMText
 62
2
  6
CONTINUOUS
  7
STANDARD
 71
1
 72
1
 10
10.08
 20
-63.0
 30
0.0
 11
1.0
 21
0.0
 31
0.0
 73
2
 44
0.9
  1
8424000300E3
 40
2.8
 41
52.3911111111
  0
MTEXT
  5
29F
100
AcDbEntity
  8
0
100
AcDbMText
 62
2
  6
CONTINUOUS
  7
STANDARD
 71
1
 72
1
 10
50.4
 20
-63.0
 30
0.0
 11
1.0
 21
0.0
 31
0.0
 73
2
 44
0.9
  1
AWG18 TEFLON CM.30 faston G/V 
 40
2.8
 41
127.4933333333
  0
MTEXT
  5
2A0
100
AcDbEntity
  8
0
100
AcDbMText
 62
2
  6
CONTINUOUS
  7
STANDARD
 71
1
 72
1
 10
148.96
 20
-63.0
 30
0.0
 11
1.0
 21
0.0
 31
0.0
 73
2
 44
0.9
  1
1
 40
2.8
 41
4.2933333333
  0
MTEXT
  5
2A1
100
AcDbEntity
  8
0
100
AcDbMText
 62
2
  6
CONTINUOUS
  7
STANDARD
 71
1
 72
1
 10
1.12
 20
-68.6
 30
0.0
 11
1.0
 21
0.0
 31
0.0
 73
2
 44
0.9
  1
+
 40
2.8
 41
7.7362962963
  0
MTEXT
  5
2A2
100
AcDbEntity
  8
0
100
AcDbMText
 62
2
  6
CONTINUOUS
  7
STANDARD
 71
1
 72
1
 10
10.08
 20
-68.6
 30
0.0
 11
1.0
 21
0.0
 31
0.0
 73
2
 44
0.9
  1
842420030001
 40
2.8
 41
51.52
  0
MTEXT
  5
2A3
100
AcDbEntity
  8
0
100
AcDbMText
 62
2
  6
CONTINUOUS
  7
STANDARD
 71
1
 72
1
 10
50.4
 20
-68.6
 30
0.0
 11
1.0
 21
0.0
 31
0.0
 73
2
 44
0.9
  1
AWG18 PTFE CM.30 spell.NRO
 40
2.8
 41
112.8711111111
  0
MTEXT
  5
2A4
100
AcDbEntity
  8
0
100
AcDbMText
 62
2
  6
CONTINUOUS
  7
STANDARD
 71
1
 72
1
 10
148.96
 20
-68.6
 30
0.0
 11
1.0
 21
0.0
 31
0.0
 73
2
 44
0.9
  1
1
 40
2.8
 41
4.2933333333
  0
MTEXT
  5
2A5
100
AcDbEntity
  8
0
100
AcDbMText
 62
2
  6
CONTINUOUS
  7
STANDARD
 71
1
 72
1
 10
1.12
 20
-74.2
 30
0.0
 11
1.0
 21
0.0
 31
0.0
 73
2
 44
0.9
  1
+
 40
2.8
 41
7.7362962963
  0
MTEXT
  5
2A6
100
AcDbEntity
  8
0
100
AcDbMText
 62
2
  6
CONTINUOUS
  7
STANDARD
 71
1
 72
1
 10
10.08
 20
-74.2
 30
0.0
 11
1.0
 21
0.0
 31
0.0
 73
2
 44
0.9
  1
842420030002
 40
2.8
 41
51.52
  0
MTEXT
  5
2A7
100
AcDbEntity
  8
0
100
AcDbMText
 62
2
  6
CONTINUOUS
  7
STANDARD
 71
1
 72
1
 10
50.4
 20
-74.2
 30
0.0
 11
1.0
 21
0.0
 31
0.0
 73
2
 44
0.9
  1
AWG18 PTFE CM.30 spell.BCO
 40
2.8
 41
112.4355555556
  0
MTEXT
  5
2A8
100
AcDbEntity
  8
0
100
AcDbMText
 62
2
  6
CONTINUOUS
  7
STANDARD
 71
1
 72
1
 10
148.96
 20
-74.2
 30
0.0
 11
1.0
 21
0.0
 31
0.0
 73
2
 44
0.9
  1
1
 40
2.8
 41
4.2933333333
  0
MTEXT
  5
2A9
100
AcDbEntity
  8
0
100
AcDbMText
 62
2
  6
CONTINUOUS
  7
STANDARD
 71
1
 72
1
 10
1.12
 20
-79.8
 30
0.0
 11
1.0
 21
0.0
 31
0.0
 73
2
 44
0.9
  1
+
 40
2.8
 41
7.7362962963
  0
MTEXT
  5
2AA
100
AcDbEntity
  8
0
100
AcDbMText
 62
2
  6
CONTINUOUS
  7
STANDARD
 71
1
 72
1
 10
10.08
 20
-79.8
 30
0.0
 11
1.0
 21
0.0
 31
0.0
 73
2
 44
0.9
  1
860102900113
 40
2.8
 41
51.52
  0
MTEXT
  5
2AB
100
AcDbEntity
  8
0
100
AcDbMText
 62
2
  6
CONTINUOUS
  7
STANDARD
 71
1
 72
1
 10
50.4
 20
-79.8
 30
0.0
 11
1.0
 21
0.0
 31
0.0
 73
2
 44
0.9
  1
VITE TS UNC 8/32 L=5/8"zinc.
 40
2.8
 41
111.7511111111
  0
MTEXT
  5
2AC
100
AcDbEntity
  8
0
100
AcDbMText
 62
2
  6
CONTINUOUS
  7
STANDARD
 71
1
 72
1
 10
148.96
 20
-79.8
 30
0.0
 11
1.0
 21
0.0
 31
0.0
 73
2
 44
0.9
  1
4
 40
2.8
 41
4.2933333333
  0
ENDBLK
  5
2AD
100
AcDbEntity
  8
0
  6
BYBLOCK
 62
0
100
AcDbBlockEnd
  0
ENDSEC
  0
SECTION
  2
ENTITIES
  0
DIMENSION
  5
2AE
100
AcDbEntity
  8
0
100
AcDbDimension
 62
2
  6
CONTINUOUS
  2
*D0
 10
873.4004079085
 20
813.5548622009
 11
791.892759552
 21
813.5548622009
 70
160
 71
2
 42
163.3366194562
  3
DIMSTYLE_1
100
AcDbAlignedDimension
 13
710.0637884523
 23
802.3010741633
 14
873.4004079085
 24
801.2725362654
100
AcDbRotatedDimension
  0
DIMENSION
  5
2AF
100
AcDbEntity
  8
0
100
AcDbDimension
 62
2
  6
CONTINUOUS
  2
*D1
 10
667.4467207125
 20
813.1388689411
 11
564.7596694183
 21
813.1388689411
 70
160
 71
2
 42
199.8302239094
  3
DIMSTYLE_1
100
AcDbAlignedDimension
 13
467.6164968031
 23
728.1313628473
 14
667.4467207125
 24
728.1313628473
100
AcDbRotatedDimension
  0
DIMENSION
  5
2B0
100
AcDbEntity
  8
0
100
AcDbDimension
 62
2
  6
CONTINUOUS
  2
*D2
 10
681.0169687855
 20
657.3027545592
 11
681.0169687855
 21
728.6136208057
 70
160
 71
2
 42
142.3226413775
  3
DIMSTYLE_1
100
AcDbAlignedDimension
 13
567.5316087536
 23
799.6253959366
 14
567.5316087578
 24
657.3027545592
 50
270.0
100
AcDbRotatedDimension
  0
DIMENSION
  5
2B1
100
AcDbEntity
  8
0
100
AcDbDimension
 62
2
  6
CONTINUOUS
  2
*D3
 10
710.0637884523
 20
803.54454256
 11
777.0528873285
 21
797.4046804615
 70
162
 71
2
 42
0.7856106326
  3
DIMSTYLE_2
100
AcDb2LineAngularDimension
 13
831.893056004
 23
757.5047804892
 14
833.1307986763
 24
758.7419973088
 15
710.0637884523
 25
801.7944818806
 16
777.0528873285
 26
797.4046804615
  0
ACAD_TABLE
  5
2B2
100
AcDbEntity
  8
0
 62
2
  6
CONTINUOUS
100
AcDbBlockReference
  2
*T1
 10
1004.3751544791
 20
579.4649186785
 30
0.0
100
AcDbTable
342
       51A
343
231
 11
1.0
 21
0.0
 31
0.0
 90
22
 91
15
 92
4
 93
0
 94
0
 95
0
 96
0
141
5.6
141
5.6
141
5.6
141
5.6
141
5.6
141
5.6
141
5.6
141
5.6
141
5.6
141
5.6
141
5.6
141
5.6
141
5.6
141
5.6
141
5.6
142
8.96
142
40.32
142
98.56
142
13.44
171
1
172
0
173
0
174
0
175
1
176
1
 91
33
178
0
145
0.0
301
CELL_VALUE
 90
4
  1
N°
304
ACVALUE_END
170
1
140
2.8
171
1
172
0
173
0
174
0
175
1
176
1
 91
33
178
0
145
0.0
301
CELL_VALUE
 90
4
  1
Codice
304
ACVALUE_END
170
1
140
2.8
171
1
172
0
173
0
174
0
175
1
176
1
 91
33
178
0
145
0.0
301
CELL_VALUE
 90
4
  1
Descrizione
304
ACVALUE_END
170
1
140
2.8
171
1
172
0
173
0
174
0
175
1
176
1
 91
33
178
0
145
0.0
301
CELL_VALUE
 90
4
  1
Q.tà
304
ACVALUE_END
170
1
140
2.8
171
1
172
0
173
0
174
0
175
1
176
1
 91
33
178
0
145
0.0
301
CELL_VALUE
 90
4
  1
1
304
ACVALUE_END
170
1
140
2.8
171
1
172
0
173
0
174
0
175
1
176
1
 91
33
178
0
145
0.0
301
CELL_VALUE
 90
4
  1
D9007002
304
ACVALUE_END
170
1
140
2.8
171
1
172
0
173
0
174
0
175
1
176
1
 91
33
178
0
145
0.0
301
CELL_VALUE
 90
4
  1
Carter di chiusura
304
ACVALUE_END
170
1
140
2.8
171
1
172
0
173
0
174
0
175
1
176
1
 91
33
178
0
145
0.0
301
CELL_VALUE
 90
4
  1
1
304
ACVALUE_END
170
1
140
2.8
171
1
172
0
173
0
174
0
175
1
176
1
 91
33
178
0
145
0.0
301
CELL_VALUE
 90
4
  1
2
304
ACVALUE_END
170
1
140
2.8
171
1
172
0
173
0
174
0
175
1
176
1
 91
33
178
0
145
0.0
301
CELL_VALUE
 90
4
  1
D9007005
304
ACVALUE_END
170
1
140
2.8
171
1
172
0
173
0
174
0
175
1
176
1
 91
33
178
0
145
0.0
301
CELL_VALUE
 90
4
  1
Vetrino
304
ACVALUE_END
170
1
140
2.8
171
1
172
0
173
0
174
0
175
1
176
1
 91
33
178
0
145
0.0
301
CELL_VALUE
 90
4
  1
1
304
ACVALUE_END
170
1
140
2.8
171
1
172
0
173
0
174
0
175
1
176
1
 91
33
178
0
145
0.0
301
CELL_VALUE
 90
4
  1
3
304
ACVALUE_END
170
1
140
2.8
171
1
172
0
173
0
174
0
175
1
176
1
 91
33
178
0
145
0.0
301
CELL_VALUE
 90
4
  1
860100601510
304
ACVALUE_END
170
1
140
2.8
171
1
172
0
173
0
174
0
175
1
176
1
 91
33
178
0
145
0.0
301
CELL_VALUE
 90
4
  1
Vite TSC UNI 7688 M3x6 INOX
304
ACVALUE_END
170
1
140
2.8
171
1
172
0
173
0
174
0
175
1
176
1
 91
33
178
0
145
0.0
301
CELL_VALUE
 90
4
  1
3
304
ACVALUE_END
170
1
140
2.8
171
1
172
0
173
0
174
0
175
1
176
1
 91
33
178
0
145
0.0
301
CELL_VALUE
 90
4
  1
4
304
ACVALUE_END
170
1
140
2.8
171
1
172
0
173
0
174
0
175
1
176
1
 91
33
178
0
145
0.0
301
CELL_VALUE
 90
4
  1
860100950110
304
ACVALUE_END
170
1
140
2.8
171
1
172
0
173
0
174
0
175
1
176
1
 91
33
178
0
145
0.0
301
CELL_VALUE
 90
4
  1
Vite TSCE M4x10 sott.dent. INOX
304
ACVALUE_END
170
1
140
2.8
171
1
172
0
173
0
174
0
175
1
176
1
 91
33
178
0
145
0.0
301
CELL_VALUE
 90
4
  1
2
304
ACVALUE_END
170
1
140
2.8
171
1
172
0
173
0
174
0
175
1
176
1
 91
33
178
0
145
0.0
301
CELL_VALUE
 90
4
  1
5
304
ACVALUE_END
170
1
140
2.8
171
1
172
0
173
0
174
0
175
1
176
1
 91
33
178
0
145
0.0
301
CELL_VALUE
 90
4
  1
860300300213
304
ACVALUE_END
170
1
140
2.8
171
1
172
0
173
0
174
0
175
1
176
1
 91
33
178
0
145
0.0
301
CELL_VALUE
 90
4
  1
Vite TCTT M3x6 sott.dent.zinc
304
ACVALUE_END
170
1
140
2.8
171
1
172
0
173
0
174
0
175
1
176
1
 91
33
178
0
145
0.0
301
CELL_VALUE
 90
4
  1
1
304
ACVALUE_END
170
1
140
2.8
171
1
172
0
173
0
174
0
175
1
176
1
 91
33
178
0
145
0.0
301
CELL_VALUE
 90
4
  1
6
304
ACVALUE_END
170
1
140
2.8
171
1
172
0
173
0
174
0
175
1
176
1
 91
33
178
0
145
0.0
301
CELL_VALUE
 90
4
  1
D9007008
304
ACVALUE_END
170
1
140
2.8
171
1
172
0
173
0
174
0
175
1
176
1
 91
33
178
0
145
0.0
301
CELL_VALUE
 90
4
  1
Crossbar Garbi
304
ACVALUE_END
170
1
140
2.8
171
1
172
0
173
0
174
0
175
1
176
1
 91
33
178
0
145
0.0
301
CELL_VALUE
 90
4
  1
1
304
ACVALUE_END
170
1
140
2.8
171
1
172
0
173
0
174
0
175
1
176
1
 91
33
178
0
145
0.0
301
CELL_VALUE
 90
4
  1
7
304
ACVALUE_END
170
1
140
2.8
171
1
172
0
173
0
174
0
175
1
176
1
 91
33
178
0
145
0.0
301
CELL_VALUE
 90
4
  1
D9007010
304
ACVALUE_END
170
1
140
2.8
171
1
172
0
173
0
174
0
175
1
176
1
 91
33
178
0
145
0.0
301
CELL_VALUE
 90
4
  1
Piastra finitura USA
304
ACVALUE_END
170
1
140
2.8
171
1
172
0
173
0
174
0
175
1
176
1
 91
33
178
0
145
0.0
301
CELL_VALUE
 90
4
  1
1
304
ACVALUE_END
170
1
140
2.8
171
1
172
0
173
0
174
0
175
1
176
1
 91
33
178
0
145
0.0
301
CELL_VALUE
 90
4
  1
+
304
ACVALUE_END
170
1
140
2.8
171
1
172
0
173
0
174
0
175
1
176
1
 91
33
178
0
145
0.0
301
CELL_VALUE
 90
4
  1
D9006001
304
ACVALUE_END
170
1
140
2.8
171
1
172
0
173
0
174
0
175
1
176
1
 91
33
178
0
145
0.0
301
CELL_VALUE
 90
4
  1
Assieme corpo (con LED UL)
304
ACVALUE_END
170
1
140
2.8
171
1
172
0
173
0
174
0
175
1
176
1
 91
33
178
0
145
0.0
301
CELL_VALUE
 90
4
  1
1
304
ACVALUE_END
170
1
140
2.8
171
1
172
0
173
0
174
0
175
1
176
1
 91
33
178
0
145
0.0
301
CELL_VALUE
 90
4
  1
+
304
ACVALUE_END
170
1
140
2.8
171
1
172
0
173
0
174
0
175
1
176
1
 91
33
178
0
145
0.0
301
CELL_VALUE
 90
4
  1
D9006005
304
ACVALUE_END
170
1
140
2.8
171
1
172
0
173
0
174
0
175
1
176
1
 91
33
178
0
145
0.0
301
CELL_VALUE
 90
4
  1
Assieme staffa interna UL
304
ACVALUE_END
170
1
140
2.8
171
1
172
0
173
0
174
0
175
1
176
1
 91
33
178
0
145
0.0
301
CELL_VALUE
 90
4
  1
1
304
ACVALUE_END
170
1
140
2.8
171
1
172
0
173
0
174
0
175
1
176
1
 91
33
178
0
145
0.0
301
CELL_VALUE
 90
4
  1
+
304
ACVALUE_END
170
1
140
2.8
171
1
172
0
173
0
174
0
175
1
176
1
 91
33
178
0
145
0.0
301
CELL_VALUE
 90
4
  1
D9006006
304
ACVALUE_END
170
1
140
2.8
171
1
172
0
173
0
174
0
175
1
176
1
 91
33
178
0
145
0.0
301
CELL_VALUE
 90
4
  1
Assieme staffa a muro UL
304
ACVALUE_END
170
1
140
2.8
171
1
172
0
173
0
174
0
175
1
176
1
 91
33
178
0
145
0.0
301
CELL_VALUE
 90
4
  1
1
304
ACVALUE_END
170
1
140
2.8
171
1
172
0
173
0
174
0
175
1
176
1
 91
33
178
0
145
0.0
301
CELL_VALUE
 90
4
  1
+
304
ACVALUE_END
170
1
140
2.8
171
1
172
0
173
0
174
0
175
1
176
1
 91
33
178
0
145
0.0
301
CELL_VALUE
 90
4
  1
8424000300E3
304
ACVALUE_END
170
1
140
2.8
171
1
172
0
173
0
174
0
175
1
176
1
 91
33
178
0
145
0.0
301
CELL_VALUE
 90
4
  1
AWG18 TEFLON CM.30 faston G/V 
304
ACVALUE_END
170
1
140
2.8
171
1
172
0
173
0
174
0
175
1
176
1
 91
33
178
0
145
0.0
301
CELL_VALUE
 90
4
  1
1
304
ACVALUE_END
170
1
140
2.8
171
1
172
0
173
0
174
0
175
1
176
1
 91
33
178
0
145
0.0
301
CELL_VALUE
 90
4
  1
+
304
ACVALUE_END
170
1
140
2.8
171
1
172
0
173
0
174
0
175
1
176
1
 91
33
178
0
145
0.0
301
CELL_VALUE
 90
4
  1
842420030001
304
ACVALUE_END
170
1
140
2.8
171
1
172
0
173
0
174
0
175
1
176
1
 91
33
178
0
145
0.0
301
CELL_VALUE
 90
4
  1
AWG18 PTFE CM.30 spell.NRO
304
ACVALUE_END
170
1
140
2.8
171
1
172
0
173
0
174
0
175
1
176
1
 91
33
178
0
145
0.0
301
CELL_VALUE
 90
4
  1
1
304
ACVALUE_END
170
1
140
2.8
171
1
172
0
173
0
174
0
175
1
176
1
 91
33
178
0
145
0.0
301
CELL_VALUE
 90
4
  1
+
304
ACVALUE_END
170
1
140
2.8
171
1
172
0
173
0
174
0
175
1
176
1
 91
33
178
0
145
0.0
301
CELL_VALUE
 90
4
  1
842420030002
304
ACVALUE_END
170
1
140
2.8
171
1
172
0
173
0
174
0
175
1
176
1
 91
33
178
0
145
0.0
301
CELL_VALUE
 90
4
  1
AWG18 PTFE CM.30 spell.BCO
304
ACVALUE_END
170
1
140
2.8
171
1
172
0
173
0
174
0
175
1
176
1
 91
33
178
0
145
0.0
301
CELL_VALUE
 90
4
  1
1
304
ACVALUE_END
170
1
140
2.8
171
1
172
0
173
0
174
0
175
1
176
1
 91
33
178
0
145
0.0
301
CELL_VALUE
 90
4
  1
+
304
ACVALUE_END
170
1
140
2.8
171
1
172
0
173
0
174
0
175
1
176
1
 91
33
178
0
145
0.0
301
CELL_VALUE
 90
4
  1
860102900113
304
ACVALUE_END
170
1
140
2.8
171
1
172
0
173
0
174
0
175
1
176
1
 91
33
178
0
145
0.0
301
CELL_VALUE
 90
4
  1
VITE TS UNC 8/32 L=5/8"zinc.
304
ACVALUE_END
170
1
140
2.8
171
1
172
0
173
0
174
0
175
1
176
1
 91
33
178
0
145
0.0
301
CELL_VALUE
 90
4
  1
4
304
ACVALUE_END
170
1
140
2.8
  0
MTEXT
  5
2B3
100
AcDbEntity
  8
NOTE
100
AcDbMText
 62
2
  6
CONTINUOUS
  7
STANDARD
 71
1
 72
1
 10
1065.3494118664
 20
371.958786161
 30
0.0
 11
1.0
 21
0.0
 31
0.0
 73
2
 44
0.9
  1
Vite di trattenuta corpo su staffa a parete,\Pimpiegata dal cliente all'atto del montaggio.\PDeve venire solo puntata (non stretta).
 40
3.0
 41
81.9444444444
  0
MTEXT
  5
2B4
100
AcDbEntity
  8
0
100
AcDbMText
 62
2
  6
CONTINUOUS
  7
STANDARD
 71
2
 72
1
 10
217.4254658774
 20
173.0407099454
 30
0.0
 11
1.0
 21
0.0
 31
0.0
 73
2
 44
0.9
  1
VISTE SENZA PIASTRA DI FINITURA E CROSSBAR
 40
3.0
 41
100.6444444444
  0
LINE
  5
2B5
100
AcDbEntity
  8
ALL_FEATURES
100
AcDbLine
 62
7
  6
CONTINUOUS
 10
470.346996345
 20
744.5998386273
 11
470.3494463009
 21
744.6078074199
  0
LINE
  5
2B6
100
AcDbEntity
  8
ALL_AXES
100
AcDbLine
 62
7
  6
CONTINUOUS
 10
470.3495260303
 20
744.6080666533
 11
469.8977182892
 21
743.1390530278
  0
LINE
  5
2B7
100
AcDbEntity
  8
ALL_FEATURES
100
AcDbLine
 62
7
  6
CONTINUOUS
 10
507.3861538072
 20
679.5772517263
 11
507.3852806773
 21
679.5793137025
  0
LWPOLYLINE
  5
2B8
100
AcDbEntity
  8
ALL_FEATURES
100
AcDbPolyline
 62
7
  6
CONTINUOUS
 90
7
 70
0
 10
507.3861444228
 20
679.577272731
 10
507.3196770335
 20
679.737725595
 10
507.0693476487
 20
680.4256149193
 10
506.8811396937
 20
681.097228417
 10
506.7527045162
 20
681.7509713968
 10
506.6803954195
 20
682.3860799645
 10
506.66313649
 20
682.76798964
  0
LWPOLYLINE
  5
2B9
100
AcDbEntity
  8
ALL_FEATURES
100
AcDbPolyline
 62
7
  6
CONTINUOUS
 90
12
 70
0
 10
506.6631366394
 20
682.7679796284
 10
506.6735723312
 20
683.3081766929
 10
506.7644407968
 20
684.0966575528
 10
506.9464979542
 20
684.8695342617
 10
507.2174042084
 20
685.6218331431
 10
507.575873466
 20
686.3563572084
 10
508.027344476
 20
687.0817256715
 10
508.5736311924
 20
687.795629057
 10
509.2132305282
 20
688.4960718795
 10
509.9552041484
 20
689.1886316867
 10
510.8074493923
 20
689.8713368081
 10
511.7675727172
 20
690.5385347341
  0
LWPOLYLINE
  5
2BA
100
AcDbEntity
  8
ALL_FEATURES
100
AcDbPolyline
 62
7
  6
CONTINUOUS
 90
22
 70
0
 10
567.5316087533
 20
699.6725635429
 10
570.6405356916
 20
699.6553224522
 10
574.2009128355
 20
699.5932771052
 10
577.6749336083
 20
699.4888032661
 10
581.0542441828
 20
699.3438496481
 10
584.3389652136
 20
699.1578926887
 10
587.5311525891
 20
698.9349321646
 10
590.6272553362
 20
698.6751758052
 10
593.6233054127
 20
698.3777435292
 10
596.5230690712
 20
698.0427645474
 10
599.3226600278
 20
697.6702085171
 10
602.0180372316
 20
697.2599831547
 10
604.6115527739
 20
696.8108564201
 10
607.0988210585
 20
696.3226963894
 10
609.4754784729
 20
695.7954176534
 10
611.7419107176
 20
695.2269112008
 10
613.8920257451
 20
694.6161284495
 10
615.9201544666
 20
693.9631829852
 10
617.8237163015
 20
693.2647970673
 10
619.597534165
 20
692.5205143879
 10
621.23364354
 20
691.7327772763
 10
622.4384962276
 20
691.0700643736
  0
LINE
  5
2BB
100
AcDbEntity
  8
ALL_FEATURES
100
AcDbLine
 62
7
  6
CONTINUOUS
 10
622.4392124101
 20
691.069644151
 11
622.4384962276
 21
691.0700643736
  0
LINE
  5
2BC
100
AcDbEntity
  8
ALL_FEATURES
100
AcDbLine
 62
7
  6
CONTINUOUS
 10
622.4392124101
 20
691.069644151
 11
623.1808689986
 21
690.6149288672
  0
LWPOLYLINE
  5
2BD
100
AcDbEntity
  8
ALL_FEATURES
100
AcDbPolyline
 62
7
  6
CONTINUOUS
 90
12
 70
0
 10
623.1808689986
 20
690.6149288672
 10
624.1436595714
 20
689.9554181233
 10
625.0082115283
 20
689.2758722678
 10
625.771191123
 20
688.5792595288
 10
626.4327624416
 20
687.8668463322
 10
626.9971456386
 20
687.1387932796
 10
627.4651738963
 20
686.3985366881
 10
627.836088969
 20
685.6476085648
 10
628.1125870179
 20
684.8836976383
 10
628.2962840683
 20
684.1072462881
 10
628.3883070355
 20
683.3218017797
 10
628.4001001617
 20
682.7691480425
  0
LINE
  5
2BE
100
AcDbEntity
  8
ALL_FEATURES
100
AcDbLine
 62
7
  6
CONTINUOUS
 10
511.7675727172
 20
690.5385347341
 11
512.5445449112
 21
691.0199930609
  0
LINE
  5
2BF
100
AcDbEntity
  8
ALL_FEATURES
100
AcDbLine
 62
7
  6
CONTINUOUS
 10
512.5445449286
 20
691.0199930845
 11
512.5449415768
 21
691.0202282236
  0
LWPOLYLINE
  5
2C0
100
AcDbEntity
  8
ALL_FEATURES
100
AcDbPolyline
 62
7
  6
CONTINUOUS
 90
25
 70
0
 10
512.5449415768
 20
691.0202282236
 10
513.5271238862
 20
691.5710766337
 10
514.9314324675
 20
692.272462757
 10
516.4434113865
 20
692.9403617959
 10
518.0569428723
 20
693.573359544
 10
519.7690851588
 20
694.170911617
 10
521.5782234229
 20
694.7349191818
 10
523.4789260324
 20
695.2661415084
 10
525.4676374247
 20
695.7643287963
 10
527.5442018176
 20
696.2315810036
 10
529.7049833057
 20
696.6683570365
 10
531.9467244767
 20
697.0747231363
 10
534.270483153
 20
697.4515657061
 10
536.6734204825
 20
697.7988357095
 10
539.1528405976
 20
698.1167159862
 10
541.7105906373
 20
698.4059965816
 10
544.3442403217
 20
698.6663527785
 10
547.0512772557
 20
698.8973865611
 10
549.8338907667
 20
699.1001274011
 10
552.6897014201
 20
699.2738769544
 10
555.6147454412
 20
699.4193733872
 10
558.6138406389
 20
699.5302692247
 10
561.6839811595
 20
699.6116705619
 10
564.8206800765
 20
699.6593272702
 10
567.5316087533
 20
699.6725635427
  0
LINE
  5
2C1
100
AcDbEntity
  8
ALL_FEATURES
100
AcDbLine
 62
7
  6
CONTINUOUS
 10
628.4000904494
 20
682.7685877946
 11
628.4001001617
 21
682.7691480425
  0
LWPOLYLINE
  5
2C2
100
AcDbEntity
  8
ALL_FEATURES
100
AcDbPolyline
 62
7
  6
CONTINUOUS
 90
7
 70
0
 10
628.4000904494
 20
682.7685877946
 10
628.3835439542
 20
682.3944890023
 10
628.3102225671
 20
681.7482986516
 10
628.1792571947
 20
681.0862124208
 10
627.988413946
 20
680.4092149977
 10
627.7358740726
 20
679.7187751249
 10
627.6777777516
 20
679.5788277053
  0
LINE
  5
2C3
100
AcDbEntity
  8
ALL_FEATURES
100
AcDbLine
 62
7
  6
CONTINUOUS
 10
627.6777622833
 20
679.5788105727
 11
627.6777037228
 21
679.5786722358
  0
LWPOLYLINE
  5
2C4
100
AcDbEntity
  8
ALL_FEATURES
100
AcDbPolyline
 62
7
  6
CONTINUOUS
 90
28
 70
0
 10
567.5316087577
 20
799.6253959366
 10
563.4118126871
 20
799.5653895858
 10
558.8127694025
 20
799.3556178351
 10
554.2309202649
 20
798.9950476036
 10
549.6759167042
 20
798.4843456709
 10
545.1577110144
 20
797.8248008534
 10
540.6864929382
 20
797.0180462224
 10
536.2718876816
 20
796.0656723294
 10
531.9233496029
 20
794.9693269216
 10
527.6506166597
 20
793.7311204023
 10
523.4629339509
 20
792.3536001756
 10
519.3694398507
 20
790.8398330146
 10
515.3793850954
 20
789.1934064314
 10
511.5013021226
 20
787.4179262889
 10
507.7435044059
 20
785.5170948278
 10
504.114402598
 20
783.4949721724
 10
500.6218456253
 20
781.3558206611
 10
497.2731759476
 20
779.1041686494
 10
494.0755832799
 20
776.7449532936
 10
491.036061292
 20
774.2834254027
 10
488.1610280901
 20
771.7247832193
 10
485.4563136549
 20
769.0740820612
 10
482.9276920511
 20
766.3368234659
 10
480.5806205679
 20
763.5188511655
 10
478.4200102043
 20
760.6260632358
 10
476.4505812024
 20
757.6647140624
 10
474.6767161451
 20
754.6411638633
 10
473.2730305742
 20
751.9183380987
  0
LWPOLYLINE
  5
2C5
100
AcDbEntity
  8
ALL_FEATURES
100
AcDbPolyline
 62
7
  6
CONTINUOUS
 90
28
 70
0
 10
661.7901868592
 20
751.9183382688
 10
660.3707714499
 20
754.6698163368
 10
658.5951931944
 20
757.6925859758
 10
656.6240002728
 20
760.6532734082
 10
654.4615199437
 20
763.5455400516
 10
652.1124718904
 20
766.3630767162
 10
649.5818501622
 20
769.0998636478
 10
646.87510244
 20
771.7500601634
 10
643.9979944981
 20
774.3081654999
 10
640.9564736782
 20
776.7690263579
 10
637.7569899898
 20
779.1274371513
 10
634.406504324
 20
781.378187402
 10
630.9122608147
 20
783.5163208237
 10
627.281677839
 20
785.5372847552
 10
623.5226153644
 20
787.4368377126
 10
619.6434466588
 20
789.2109612471
 10
615.6525010389
 20
790.8559606974
 10
611.558327996
 20
792.3682404628
 10
607.3701001448
 20
793.744255356
 10
603.0969062132
 20
794.9809535497
 10
598.7479987057
 20
796.0757926432
 10
594.3331114439
 20
797.0266716111
 10
589.8617224219
 20
797.8319359511
 10
585.3434450051
 20
798.4899953295
 10
580.7883984203
 20
798.9992268074
 10
576.2065107271
 20
799.3583397061
 10
571.6074640451
 20
799.5666649456
 10
567.5316087577
 20
799.6253959366
  0
LINE
  5
2C6
100
AcDbEntity
  8
ALL_AXES
100
AcDbLine
 62
7
  6
CONTINUOUS
 10
664.7136915386
 20
744.6080664795
 11
665.1654992263
 21
743.1390530278
  0
LINE
  5
2C7
100
AcDbEntity
  8
ALL_FEATURES
100
AcDbLine
 62
7
  6
CONTINUOUS
 10
664.7137474435
 20
744.6078847097
 11
664.7178209504
 21
744.5946318394
  0
LINE
  5
2C8
100
AcDbEntity
  8
ALL_FEATURES
100
AcDbLine
 62
7
  6
CONTINUOUS
 10
470.8324313267
 20
512.1082767847
 11
470.7661974375
 21
511.4711481406
  0
LINE
  5
2C9
100
AcDbEntity
  8
ALL_FEATURES
100
AcDbLine
 62
7
  6
CONTINUOUS
 10
475.3947161694
 20
483.7000978702
 11
475.4285296877
 21
483.6320694618
  0
LINE
  5
2CA
100
AcDbEntity
  8
ALL_FEATURES
100
AcDbLine
 62
7
  6
CONTINUOUS
 10
475.0904224772
 20
484.449768709
 11
475.1223605698
 21
484.3840293391
  0
LINE
  5
2CB
100
AcDbEntity
  8
ALL_FEATURES
100
AcDbLine
 62
7
  6
CONTINUOUS
 10
474.2196416158
 20
534.6891480276
 11
474.1808260871
 21
534.5628213858
  0
LINE
  5
2CC
100
AcDbEntity
  8
ALL_AXES
100
AcDbLine
 62
7
  6
CONTINUOUS
 10
474.2196630021
 20
534.6892175377
 11
469.9016445183
 21
520.656084579
  0
LINE
  5
2CD
100
AcDbEntity
  8
ALL_FEATURES
100
AcDbLine
 62
7
  6
CONTINUOUS
 10
478.771362775
 20
541.1856842925
 11
478.5214723842
 21
540.4942286024
  0
LWPOLYLINE
  5
2CE
100
AcDbEntity
  8
ALL_FEATURES
100
AcDbPolyline
 62
7
  6
CONTINUOUS
 90
13
 70
0
 10
509.5269410485
 20
596.0726155255
 10
506.7467909529
 20
593.2020567086
 10
503.4373235564
 20
589.5088114393
 10
500.2020599487
 20
585.5810288558
 10
497.0514306331
 20
581.4213409101
 10
493.995441985
 20
577.0328501865
 10
491.0437108369
 20
572.4190282474
 10
488.2055251019
 20
567.5836496697
 10
485.4899418564
 20
562.5308014084
 10
482.905828323
 20
557.2648129739
 10
480.4618970469
 20
551.7901765968
 10
478.1667784459
 20
546.1115183661
 10
476.1881401332
 20
540.6938390868
  0
LINE
  5
2CF
100
AcDbEntity
  8
ALL_FEATURES
100
AcDbLine
 62
7
  6
CONTINUOUS
 10
513.2215963324
 20
596.0726155255
 11
511.4017885969
 21
594.2573937412
  0
LINE
  5
2D0
100
AcDbEntity
  8
0
100
AcDbLine
 62
7
  6
CONTINUOUS
 10
491.1194494361
 20
479.8753181294
 11
491.1194494361
 21
479.5886149139
  0
LINE
  5
2D1
100
AcDbEntity
  8
ALL_FEATURES
100
AcDbLine
 62
7
  6
CONTINUOUS
 10
492.4194494361
 20
480.1047487039
 11
492.4194494361
 21
479.6458875548
  0
LINE
  5
2D2
100
AcDbEntity
  8
ALL_FEATURES
100
AcDbLine
 62
7
  6
CONTINUOUS
 10
493.5194494361
 20
480.7356827839
 11
493.5194494361
 21
479.0149534748
  0
LINE
  5
2D3
100
AcDbEntity
  8
ALL_FEATURES
100
AcDbLine
 62
7
  6
CONTINUOUS
 10
494.3194494361
 20
479.0149534748
 11
494.3194494361
 21
480.7356827839
  0
LINE
  5
2D4
100
AcDbEntity
  8
ALL_FEATURES
100
AcDbLine
 62
7
  6
CONTINUOUS
 10
495.4194494361
 20
479.6458875548
 11
495.4194494361
 21
480.1047487039
  0
LINE
  5
2D5
100
AcDbEntity
  8
0
100
AcDbLine
 62
7
  6
CONTINUOUS
 10
496.5316087578
 20
598.0726155255
 11
496.5316087578
 21
597.0726155255
  0
LINE
  5
2D6
100
AcDbEntity
  8
0
100
AcDbLine
 62
7
  6
CONTINUOUS
 10
496.7194494361
 20
479.8753181294
 11
496.7194494361
 21
479.5886149139
  0
LINE
  5
2D7
100
AcDbEntity
  8
ALL_FEATURES
100
AcDbLine
 62
7
  6
CONTINUOUS
 10
507.5316087578
 20
567.3645060159
 11
506.2816087578
 21
566.6428181794
  0
LINE
  5
2D8
100
AcDbEntity
  8
ALL_FEATURES
100
AcDbLine
 62
7
  6
CONTINUOUS
 10
507.5316087578
 20
564.47775467
 11
508.7816087578
 21
565.1994425065
  0
LINE
  5
2D9
100
AcDbEntity
  8
0
100
AcDbLine
 62
7
  6
CONTINUOUS
 10
491.9204192405
 20
478.4640717893
 11
492.1855584664
 21
478.3090117727
  0
LINE
  5
2DA
100
AcDbEntity
  8
ALL_FEATURES
100
AcDbLine
 62
7
  6
CONTINUOUS
 10
492.1856104631
 20
478.3089813637
 11
492.185350607
 21
478.3091333564
  0
LINE
  5
2DB
100
AcDbEntity
  8
ALL_FEATURES
100
AcDbLine
 62
7
  6
CONTINUOUS
 10
482.743926226
 20
493.2705829581
 11
482.8980524254
 21
493.1388899663
  0
LINE
  5
2DC
100
AcDbEntity
  8
ALL_FEATURES
100
AcDbLine
 62
7
  6
CONTINUOUS
 10
506.2816087578
 20
566.6428181794
 11
506.2816087578
 21
565.1994425065
  0
LWPOLYLINE
  5
2DD
100
AcDbEntity
  8
ALL_FEATURES
100
AcDbPolyline
 62
7
  6
CONTINUOUS
 90
3
 70
0
 10
492.5471409029
 20
478.1431635988
 10
492.3427259366
 20
478.2266484862
 10
492.1855686401
 20
478.3090291689
  0
LINE
  5
2DE
100
AcDbEntity
  8
ALL_FEATURES
100
AcDbLine
 62
7
  6
CONTINUOUS
 10
508.7816087578
 20
565.1994425065
 11
508.7816087578
 21
566.6428181794
  0
LWPOLYLINE
  5
2DF
100
AcDbEntity
  8
ALL_FEATURES
100
AcDbPolyline
 62
7
  6
CONTINUOUS
 90
4
 70
0
 10
497.4422725195
 20
480.1524386957
 10
497.398437387
 20
480.0323399347
 10
497.312525886
 20
479.8396232907
 10
497.2058695853
 20
479.6433070093
  0
LINE
  5
2E0
100
AcDbEntity
  8
0
100
AcDbLine
 62
7
  6
CONTINUOUS
 10
518.5316087578
 20
597.0726155255
 11
518.5316087578
 21
596.0726155255
  0
LINE
  5
2E1
100
AcDbEntity
  8
ALL_AXES
100
AcDbLine
 62
7
  6
CONTINUOUS
 10
521.5316087578
 20
603.0726155255
 11
521.5316087578
 21
604.5726155255
  0
LINE
  5
2E2
100
AcDbEntity
  8
ALL_FEATURES
100
AcDbLine
 62
7
  6
CONTINUOUS
 10
522.6761855589
 20
597.0726155255
 11
522.6761855589
 21
596.0726155255
  0
LWPOLYLINE
  5
2E3
100
AcDbEntity
  8
ALL_FEATURES
100
AcDbPolyline
 62
7
  6
CONTINUOUS
 90
4
 70
0
 10
497.2058695853
 20
479.6433070093
 10
497.0791489785
 20
479.4457659604
 10
496.9334226142
 20
479.2492918025
 10
496.7704581555
 20
479.0564170798
  0
LINE
  5
2E4
100
AcDbEntity
  8
ALL_FEATURES
100
AcDbLine
 62
7
  6
CONTINUOUS
 10
493.5194494361
 20
479.0149534748
 11
494.3194494361
 21
479.0149534748
  0
LINE
  5
2E5
100
AcDbEntity
  8
ALL_FEATURES
100
AcDbLine
 62
7
  6
CONTINUOUS
 10
640.7437680794
 20
479.0149534749
 11
641.5437680794
 21
479.0149534749
  0
LINE
  5
2E6
100
AcDbEntity
  8
ALL_FEATURES
100
AcDbLine
 62
7
  6
CONTINUOUS
 10
492.4194494361
 20
479.6458875548
 11
493.5194494361
 21
479.6458875548
  0
LINE
  5
2E7
100
AcDbEntity
  8
ALL_FEATURES
100
AcDbLine
 62
7
  6
CONTINUOUS
 10
494.3194494361
 20
479.6458875548
 11
495.4194494361
 21
479.6458875548
  0
LINE
  5
2E8
100
AcDbEntity
  8
ALL_FEATURES
100
AcDbLine
 62
7
  6
CONTINUOUS
 10
639.6437680794
 20
479.6458875548
 11
640.7437680794
 21
479.6458875548
  0
LINE
  5
2E9
100
AcDbEntity
  8
ALL_FEATURES
100
AcDbLine
 62
7
  6
CONTINUOUS
 10
641.5437680794
 20
479.6458875548
 11
642.6437680794
 21
479.6458875548
  0
LINE
  5
2EA
100
AcDbEntity
  8
ALL_FEATURES
100
AcDbLine
 62
7
  6
CONTINUOUS
 10
641.5437680794
 20
480.0803611485
 11
640.7437680794
 21
480.0803611485
  0
LINE
  5
2EB
100
AcDbEntity
  8
ALL_FEATURES
100
AcDbLine
 62
7
  6
CONTINUOUS
 10
494.3194494361
 20
480.0803611485
 11
493.5194494361
 21
480.0803611485
  0
LINE
  5
2EC
100
AcDbEntity
  8
ALL_FEATURES
100
AcDbLine
 62
7
  6
CONTINUOUS
 10
642.6437680794
 20
480.1047487039
 11
641.5437680794
 21
480.1047487039
  0
LINE
  5
2ED
100
AcDbEntity
  8
ALL_FEATURES
100
AcDbLine
 62
7
  6
CONTINUOUS
 10
640.7437680794
 20
480.1047487039
 11
639.6437680794
 21
480.1047487039
  0
LINE
  5
2EE
100
AcDbEntity
  8
ALL_FEATURES
100
AcDbLine
 62
7
  6
CONTINUOUS
 10
495.4194494361
 20
480.1047487039
 11
494.3194494361
 21
480.1047487039
  0
LINE
  5
2EF
100
AcDbEntity
  8
ALL_FEATURES
100
AcDbLine
 62
7
  6
CONTINUOUS
 10
493.5194494361
 20
480.1047487039
 11
492.4194494361
 21
480.1047487039
  0
LINE
  5
2F0
100
AcDbEntity
  8
ALL_FEATURES
100
AcDbLine
 62
7
  6
CONTINUOUS
 10
641.5437680794
 20
480.7356827839
 11
640.7437680794
 21
480.7356827839
  0
LINE
  5
2F1
100
AcDbEntity
  8
ALL_FEATURES
100
AcDbLine
 62
7
  6
CONTINUOUS
 10
494.3194494361
 20
480.7356827839
 11
493.5194494361
 21
480.7356827839
  0
LWPOLYLINE
  5
2F2
100
AcDbEntity
  8
ALL_FEATURES
100
AcDbPolyline
 62
7
  6
CONTINUOUS
 90
9
 70
0
 10
512.6774777568
 20
526.8790532234
 10
511.9152694331
 20
527.8494512146
 10
510.9523561993
 20
529.1958614517
 10
510.0844535437
 20
530.562596952
 10
509.3143657103
 20
531.9458375504
 10
508.6411830273
 20
533.3402619821
 10
508.0662943899
 20
534.7400101312
 10
507.5918370666
 20
536.140269598
 10
507.2572079468
 20
537.3856280671
  0
LINE
  5
2F3
100
AcDbEntity
  8
ALL_FEATURES
100
AcDbLine
 62
7
  6
CONTINUOUS
 10
485.9981047903
 20
494.0738741195
 11
485.1604819512
 21
494.071968084
  0
LINE
  5
2F4
100
AcDbEntity
  8
ALL_FEATURES
100
AcDbLine
 62
7
  6
CONTINUOUS
 10
649.9177820091
 20
494.0712837658
 11
651.5358990661
 21
494.0726438265
  0
LINE
  5
2F5
100
AcDbEntity
  8
ALL_FEATURES
100
AcDbLine
 62
7
  6
CONTINUOUS
 10
491.1784879852
 20
494.0749825392
 11
485.9981047903
 21
494.0738741195
  0
LINE
  5
2F6
100
AcDbEntity
  8
ALL_FEATURES
100
AcDbLine
 62
7
  6
CONTINUOUS
 10
604.4990127744
 20
494.0726155255
 11
609.6120463608
 21
494.0730605047
  0
LINE
  5
2F7
100
AcDbEntity
  8
ALL_FEATURES
100
AcDbLine
 62
7
  6
CONTINUOUS
 10
485.5612791704
 20
494.0726155255
 11
649.5027601623
 21
494.0726155255
  0
LINE
  5
2F8
100
AcDbEntity
  8
ALL_FEATURES
100
AcDbLine
 62
7
  6
CONTINUOUS
 10
525.4551951173
 20
494.0764966368
 11
491.1793753833
 21
494.0763476367
  0
LINE
  5
2F9
100
AcDbEntity
  8
ALL_FEATURES
100
AcDbLine
 62
7
  6
CONTINUOUS
 10
542.6488425374
 20
494.0726155255
 11
525.4551951173
 21
494.0764966368
  0
LINE
  5
2FA
100
AcDbEntity
  8
ALL_FEATURES
100
AcDbLine
 62
7
  6
CONTINUOUS
 10
609.6120463608
 20
494.0730605047
 11
611.2248998602
 21
494.0726155255
  0
LINE
  5
2FB
100
AcDbEntity
  8
ALL_FEATURES
100
AcDbLine
 62
7
  6
CONTINUOUS
 10
485.1604819512
 20
494.071968084
 11
483.5273220888
 21
494.0726475248
  0
LINE
  5
2FC
100
AcDbEntity
  8
ALL_FEATURES
100
AcDbLine
 62
7
  6
CONTINUOUS
 10
649.5150668162
 20
494.0719122903
 11
649.9177820091
 21
494.0712837658
  0
LINE
  5
2FD
100
AcDbEntity
  8
ALL_AXES
100
AcDbLine
 62
7
  6
CONTINUOUS
 10
542.8209306391
 20
603.0726155255
 11
542.8209306391
 21
604.5726155255
  0
LWPOLYLINE
  5
2FE
100
AcDbEntity
  8
ALL_FEATURES
100
AcDbPolyline
 62
7
  6
CONTINUOUS
 90
3
 70
0
 10
496.7704581555
 20
479.0564170798
 10
496.5919065747
 20
478.8690133215
 10
496.566379397
 20
478.8439110443
  0
LINE
  5
2FF
100
AcDbEntity
  8
ALL_FEATURES
100
AcDbLine
 62
7
  6
CONTINUOUS
 10
561.7528249826
 20
486.3784440425
 11
561.5896780023
 21
486.7183928568
  0
LINE
  5
300
100
AcDbEntity
  8
ALL_FEATURES
100
AcDbLine
 62
7
  6
CONTINUOUS
 10
627.5316087578
 20
567.3645060159
 11
626.2816087578
 21
566.6428181794
  0
LINE
  5
301
100
AcDbEntity
  8
ALL_FEATURES
100
AcDbLine
 62
7
  6
CONTINUOUS
 10
627.5316087578
 20
564.47775467
 11
628.7816087578
 21
565.1994425065
  0
LWPOLYLINE
  5
302
100
AcDbEntity
  8
ALL_FEATURES
100
AcDbPolyline
 62
7
  6
CONTINUOUS
 90
22
 70
0
 10
567.531608754
 20
505.8030767672
 10
564.380481736
 20
505.8548093689
 10
560.8240620668
 20
506.0370616664
 10
557.3540534809
 20
506.3428492183
 10
553.979436561
 20
506.7637964143
 10
550.699510226
 20
507.2963439948
 10
547.5120156894
 20
507.9309623752
 10
544.4203746727
 20
508.6630329375
 10
541.4285808457
 20
509.4885455395
 10
538.5332977309
 20
510.4043692723
 10
535.7381219861
 20
511.4058107211
 10
533.0472307533
 20
512.4889854398
 10
530.4580213425
 20
513.6523058019
 10
527.9750031625
 20
514.8919441145
 10
525.602480548
 20
516.2038758099
 10
523.3397319856
 20
517.5881615358
 10
521.1931002665
 20
519.0421384661
 10
519.1680827025
 20
520.5613450154
 10
517.2666899722
 20
522.1475793027
 10
515.4936709692
 20
523.7982821839
 10
513.8574456589
 20
525.5052928091
 10
512.6774618936
 20
526.8790726858
  0
LWPOLYLINE
  5
303
100
AcDbEntity
  8
ALL_FEATURES
100
AcDbPolyline
 62
7
  6
CONTINUOUS
 90
4
 70
0
 10
639.493587797
 20
478.3604270442
 10
639.144078372
 20
478.5064505699
 10
638.7967560407
 20
478.6758541887
 10
638.5258287274
 20
478.8260408758
  0
LINE
  5
304
100
AcDbEntity
  8
ALL_FEATURES
100
AcDbLine
 62
7
  6
CONTINUOUS
 10
566.0316087578
 20
587.4726155255
 11
566.0316087578
 21
586.6726155255
  0
LINE
  5
305
100
AcDbEntity
  8
ALL_FEATURES
100
AcDbLine
 62
7
  6
CONTINUOUS
 10
567.1316087578
 20
588.5726155255
 11
567.1316087578
 21
587.4726155255
  0
LINE
  5
306
100
AcDbEntity
  8
ALL_FEATURES
100
AcDbLine
 62
7
  6
CONTINUOUS
 10
567.1316087578
 20
586.6726155255
 11
567.1316087578
 21
585.5726155255
  0
LINE
  5
307
100
AcDbEntity
  8
ALL_FEATURES
100
AcDbLine
 62
7
  6
CONTINUOUS
 10
567.9316087578
 20
585.5726155255
 11
567.9316087578
 21
586.6726155255
  0
LINE
  5
308
100
AcDbEntity
  8
ALL_FEATURES
100
AcDbLine
 62
7
  6
CONTINUOUS
 10
567.9316087578
 20
587.4726155255
 11
567.9316087578
 21
588.5726155255
  0
LINE
  5
309
100
AcDbEntity
  8
ALL_FEATURES
100
AcDbLine
 62
7
  6
CONTINUOUS
 10
496.5356821237
 20
478.8250271807
 11
496.5355165164
 21
478.8249303186
  0
LINE
  5
30A
100
AcDbEntity
  8
ALL_FEATURES
100
AcDbLine
 62
7
  6
CONTINUOUS
 10
638.5275194449
 20
478.8250365076
 11
638.5258418904
 21
478.8260180197
  0
LINE
  5
30B
100
AcDbEntity
  8
ALL_FEATURES
100
AcDbLine
 62
7
  6
CONTINUOUS
 10
572.1245956108
 20
486.5527848847
 11
572.0910149568
 21
486.9296292139
  0
LINE
  5
30C
100
AcDbEntity
  8
ALL_FEATURES
100
AcDbLine
 62
7
  6
CONTINUOUS
 10
569.0316087578
 20
586.6726155255
 11
569.0316087578
 21
587.4726155255
  0
LWPOLYLINE
  5
30D
100
AcDbEntity
  8
ALL_FEATURES
100
AcDbPolyline
 62
7
  6
CONTINUOUS
 90
3
 70
0
 10
496.5355461339
 20
478.8249510395
 10
496.2650944826
 20
478.6751401534
 10
495.9172325615
 20
478.5055848304
  0
LINE
  5
30E
100
AcDbEntity
  8
ALL_FEATURES
100
AcDbLine
 62
7
  6
CONTINUOUS
 10
506.2816087578
 20
565.1994425065
 11
507.5316087578
 21
564.47775467
  0
LWPOLYLINE
  5
30F
100
AcDbEntity
  8
ALL_FEATURES
100
AcDbPolyline
 62
7
  6
CONTINUOUS
 90
12
 70
0
 10
495.9172325615
 20
478.5055848304
 10
495.5676584214
 20
478.3596537013
 10
495.2214110689
 20
478.2381159908
 10
494.8805449539
 20
478.1403358738
 10
494.5443429354
 20
478.0652155168
 10
494.2155577224
 20
478.0127586516
 10
493.8977023014
 20
477.9828351242
 10
493.5918953428
 20
477.9748252658
 10
493.3011381017
 20
477.9881268312
 10
493.0285176152
 20
478.0216766495
 10
492.7763283551
 20
478.0740169737
 10
492.5471409029
 20
478.1431635988
  0
LINE
  5
310
100
AcDbEntity
  8
ALL_FEATURES
100
AcDbLine
 62
7
  6
CONTINUOUS
 10
508.7816087578
 20
566.6428181794
 11
507.5316087578
 21
567.3645060159
  0
LINE
  5
311
100
AcDbEntity
  8
ALL_AXES
100
AcDbLine
 62
7
  6
CONTINUOUS
 10
592.2422868764
 20
603.0726155255
 11
592.2422868764
 21
604.5726155255
  0
LWPOLYLINE
  5
312
100
AcDbEntity
  8
ALL_FEATURES
100
AcDbPolyline
 62
7
  6
CONTINUOUS
 90
3
 70
0
 10
638.4968867456
 20
478.8438803278
 10
638.4624306529
 20
478.8778511217
 10
638.2886868781
 20
479.0609388866
  0
LWPOLYLINE
  5
313
100
AcDbEntity
  8
ALL_FEATURES
100
AcDbPolyline
 62
7
  6
CONTINUOUS
 90
4
 70
0
 10
638.2886868781
 20
479.0609388866
 10
638.1290853644
 20
479.2501734839
 10
637.9854407973
 20
479.4438201361
 10
637.8597183182
 20
479.6393242442
  0
LINE
  5
314
100
AcDbEntity
  8
ALL_FEATURES
100
AcDbLine
 62
7
  6
CONTINUOUS
 10
612.3870319566
 20
597.0726155255
 11
612.3870319566
 21
596.0726155255
  0
LINE
  5
315
100
AcDbEntity
  8
ALL_FEATURES
100
AcDbLine
 62
7
  6
CONTINUOUS
 10
623.0739094957
 20
527.7485717197
 11
622.3054434184
 21
526.7769225778
  0
LWPOLYLINE
  5
316
100
AcDbEntity
  8
ALL_FEATURES
100
AcDbPolyline
 62
7
  6
CONTINUOUS
 90
22
 70
0
 10
622.3054638297
 20
526.7769474453
 10
621.0958527022
 20
525.380012078
 10
619.4553557646
 20
523.682395448
 10
617.6793678864
 20
522.0409752465
 10
615.7761055092
 20
520.4637879271
 10
613.7502826109
 20
518.953358644
 10
611.6037543817
 20
517.5078694035
 10
609.3421142469
 20
516.1316498928
 10
606.9713938948
 20
514.8276128652
 10
604.4908694368
 20
513.5955792536
 10
601.9048387979
 20
512.4395400509
 10
599.2176777041
 20
511.3634157965
 10
596.4268358114
 20
510.3684253759
 10
593.5363328074
 20
509.4588094337
 10
590.5500662863
 20
508.6388257369
 10
587.4641437501
 20
507.9119094644
 10
584.2825034893
 20
507.2817393185
 10
581.0086293185
 20
506.7532398571
 10
577.6407708803
 20
506.3355176637
 10
574.1783611884
 20
506.0328294894
 10
570.6299967388
 20
505.8529843541
 10
567.531608754
 20
505.8030767672
  0
LWPOLYLINE
  5
317
100
AcDbEntity
  8
ALL_FEATURES
100
AcDbPolyline
 62
7
  6
CONTINUOUS
 90
3
 70
0
 10
637.8597183182
 20
479.6393242442
 10
637.7532159025
 20
479.8344736336
 10
637.6669216864
 20
480.0269956077
  0
LINE
  5
318
100
AcDbEntity
  8
ALL_AXES
100
AcDbLine
 62
7
  6
CONTINUOUS
 10
613.5316087578
 20
603.0726155255
 11
613.5316087578
 21
604.5726155255
  0
LINE
  5
319
100
AcDbEntity
  8
0
100
AcDbLine
 62
7
  6
CONTINUOUS
 10
616.5316087578
 20
597.0726155255
 11
616.5316087578
 21
596.0726155255
  0
LINE
  5
31A
100
AcDbEntity
  8
ALL_FEATURES
100
AcDbLine
 62
7
  6
CONTINUOUS
 10
637.6669216864
 20
480.0269956077
 11
637.6208243884
 21
480.1529287781
  0
LINE
  5
31B
100
AcDbEntity
  8
ALL_FEATURES
100
AcDbLine
 62
7
  6
CONTINUOUS
 10
626.2816087578
 20
566.6428181794
 11
626.2816087578
 21
565.1994425065
  0
LINE
  5
31C
100
AcDbEntity
  8
ALL_FEATURES
100
AcDbLine
 62
7
  6
CONTINUOUS
 10
628.7816087578
 20
565.1994425065
 11
628.7816087578
 21
566.6428181794
  0
LWPOLYLINE
  5
31D
100
AcDbEntity
  8
ALL_FEATURES
100
AcDbPolyline
 62
7
  6
CONTINUOUS
 90
8
 70
0
 10
627.8066127145
 20
537.385146008
 10
627.475806877
 20
536.1507935274
 10
626.9992014557
 20
534.7437673792
 10
626.4206688462
 20
533.3315584198
 10
625.7392109836
 20
531.9207187054
 10
624.9530595589
 20
530.516711884
 10
624.0636575065
 20
529.1243287972
 10
623.0739094957
 20
527.7485717197
  0
LWPOLYLINE
  5
31E
100
AcDbEntity
  8
ALL_FEATURES
100
AcDbPolyline
 62
7
  6
CONTINUOUS
 90
11
 70
0
 10
642.5193699511
 20
478.1443185695
 10
642.2911427634
 20
478.07511505
 10
642.0393601126
 20
478.0224442204
 10
641.7665049024
 20
477.9885046487
 10
641.4751699057
 20
477.9748710502
 10
641.1685045968
 20
477.9826499071
 10
640.8494418195
 20
478.0125458379
 10
640.5194781814
 20
478.0651087645
 10
640.1821782934
 20
478.1404616624
 10
639.8403382015
 20
478.2385920919
 10
639.493587797
 20
478.3604270442
  0
LINE
  5
31F
100
AcDbEntity
  8
ALL_FEATURES
100
AcDbLine
 62
7
  6
CONTINUOUS
 10
637.6208379472
 20
480.152762681
 11
637.6210224206
 21
480.1522084884
  0
LINE
  5
320
100
AcDbEntity
  8
0
100
AcDbLine
 62
7
  6
CONTINUOUS
 10
638.3437680794
 20
479.8753181294
 11
638.3437680794
 21
479.5886149139
  0
LINE
  5
321
100
AcDbEntity
  8
0
100
AcDbLine
 62
7
  6
CONTINUOUS
 10
638.5316087578
 20
598.0726155255
 11
638.5316087578
 21
597.0726155255
  0
LINE
  5
322
100
AcDbEntity
  8
ALL_FEATURES
100
AcDbLine
 62
7
  6
CONTINUOUS
 10
567.1316087578
 20
585.5726155255
 11
567.9316087578
 21
585.5726155255
  0
LINE
  5
323
100
AcDbEntity
  8
ALL_FEATURES
100
AcDbLine
 62
7
  6
CONTINUOUS
 10
566.0316087578
 20
586.6726155255
 11
567.1316087578
 21
586.6726155255
  0
LINE
  5
324
100
AcDbEntity
  8
ALL_FEATURES
100
AcDbLine
 62
7
  6
CONTINUOUS
 10
567.9316087578
 20
586.6726155255
 11
569.0316087578
 21
586.6726155255
  0
LINE
  5
325
100
AcDbEntity
  8
ALL_FEATURES
100
AcDbLine
 62
7
  6
CONTINUOUS
 10
569.0316087578
 20
587.4726155255
 11
567.9316087578
 21
587.4726155255
  0
LINE
  5
326
100
AcDbEntity
  8
ALL_FEATURES
100
AcDbLine
 62
7
  6
CONTINUOUS
 10
567.1316087578
 20
587.4726155255
 11
566.0316087578
 21
587.4726155255
  0
LINE
  5
327
100
AcDbEntity
  8
ALL_FEATURES
100
AcDbLine
 62
7
  6
CONTINUOUS
 10
567.9316087578
 20
588.5726155255
 11
567.1316087578
 21
588.5726155255
  0
LINE
  5
328
100
AcDbEntity
  8
ALL_FEATURES
100
AcDbLine
 62
7
  6
CONTINUOUS
 10
626.2816087578
 20
565.1994425065
 11
627.5316087578
 21
564.47775467
  0
LINE
  5
329
100
AcDbEntity
  8
ALL_FEATURES
100
AcDbLine
 62
7
  6
CONTINUOUS
 10
639.6437680794
 20
480.1047487039
 11
639.6437680794
 21
479.6458875548
  0
LINE
  5
32A
100
AcDbEntity
  8
ALL_FEATURES
100
AcDbLine
 62
7
  6
CONTINUOUS
 10
640.7437680794
 20
480.7356827839
 11
640.7437680794
 21
479.0149534749
  0
LINE
  5
32B
100
AcDbEntity
  8
ALL_FEATURES
100
AcDbLine
 62
7
  6
CONTINUOUS
 10
641.5437680794
 20
479.0149534749
 11
641.5437680794
 21
480.7356827839
  0
LINE
  5
32C
100
AcDbEntity
  8
ALL_FEATURES
100
AcDbLine
 62
7
  6
CONTINUOUS
 10
642.6437680794
 20
479.6458875548
 11
642.6437680794
 21
480.1047487039
  0
LINE
  5
32D
100
AcDbEntity
  8
0
100
AcDbLine
 62
7
  6
CONTINUOUS
 10
643.9437680794
 20
479.8753181294
 11
643.9437680794
 21
479.5886149139
  0
LINE
  5
32E
100
AcDbEntity
  8
ALL_FEATURES
100
AcDbLine
 62
7
  6
CONTINUOUS
 10
652.1651650901
 20
493.1388899663
 11
652.3192912895
 21
493.2705829581
  0
LINE
  5
32F
100
AcDbEntity
  8
0
100
AcDbLine
 62
7
  6
CONTINUOUS
 10
643.142798275
 20
478.4640717894
 11
642.877599342
 21
478.3089768545
  0
LINE
  5
330
100
AcDbEntity
  8
ALL_FEATURES
100
AcDbLine
 62
7
  6
CONTINUOUS
 10
642.877599342
 20
478.3089768545
 11
642.8765408156
 21
478.3083581738
  0
LWPOLYLINE
  5
331
100
AcDbEntity
  8
ALL_FEATURES
100
AcDbPolyline
 62
7
  6
CONTINUOUS
 90
3
 70
0
 10
642.8767080068
 20
478.3084746474
 10
642.7224610086
 20
478.2275894446
 10
642.5193699511
 20
478.1443185695
  0
LINE
  5
332
100
AcDbEntity
  8
ALL_FEATURES
100
AcDbLine
 62
7
  6
CONTINUOUS
 10
509.5270075857
 20
596.0726155255
 11
625.5362004218
 21
596.0726155255
  0
LINE
  5
333
100
AcDbEntity
  8
0
100
AcDbLine
 62
7
  6
CONTINUOUS
 10
638.5316087578
 20
597.0726155255
 11
496.5316087578
 21
597.0726155255
  0
LINE
  5
334
100
AcDbEntity
  8
0
100
AcDbLine
 62
7
  6
CONTINUOUS
 10
638.5316087578
 20
598.0726155255
 11
496.5316087578
 21
598.0726155255
  0
LINE
  5
335
100
AcDbEntity
  8
ALL_FEATURES
100
AcDbLine
 62
7
  6
CONTINUOUS
 10
628.7816087578
 20
566.6428181794
 11
627.5316087578
 21
567.3645060159
  0
LINE
  5
336
100
AcDbEntity
  8
ALL_AXES
100
AcDbLine
 62
7
  6
CONTINUOUS
 10
521.5316087578
 20
603.0726155255
 11
613.5316087578
 21
603.0726155255
  0
LINE
  5
337
100
AcDbEntity
  8
ALL_AXES
100
AcDbLine
 62
7
  6
CONTINUOUS
 10
521.5316087578
 20
604.5726155255
 11
613.5316087578
 21
604.5726155255
  0
LINE
  5
338
100
AcDbEntity
  8
ALL_FEATURES
100
AcDbLine
 62
7
  6
CONTINUOUS
 10
664.2307780461
 20
512.1082764194
 11
664.2972746577
 21
511.4686273709
  0
LINE
  5
339
100
AcDbEntity
  8
ALL_FEATURES
100
AcDbLine
 62
7
  6
CONTINUOUS
 10
623.7865518098
 20
594.1312606908
 11
621.8415516886
 21
596.0726155255
  0
LWPOLYLINE
  5
33A
100
AcDbEntity
  8
ALL_FEATURES
100
AcDbPolyline
 62
7
  6
CONTINUOUS
 90
13
 70
0
 10
658.8750773818
 20
540.6938390881
 10
656.9121736438
 20
546.0705032823
 10
654.6185054392
 20
551.74973717
 10
652.1759964239
 20
557.225069087
 10
649.5933132526
 20
562.4917892587
 10
646.8791870583
 20
567.5453828035
 10
644.0424581564
 20
572.3815731046
 10
641.0921510977
 20
576.9963247109
 10
638.0375742983
 20
581.3858248482
 10
634.8883698502
 20
585.5465666616
 10
631.6545380909
 20
589.475458795
 10
628.3464696525
 20
593.1699137538
 10
625.5362763434
 20
596.0726155255
  0
LINE
  5
33B
100
AcDbEntity
  8
ALL_FEATURES
100
AcDbLine
 62
7
  6
CONTINUOUS
 10
656.5417428503
 20
540.4942274113
 11
656.2918880436
 21
541.1856362938
  0
LINE
  5
33C
100
AcDbEntity
  8
ALL_AXES
100
AcDbLine
 62
7
  6
CONTINUOUS
 10
660.8435513766
 20
534.6892277323
 11
665.1615729972
 21
520.656084579
  0
LINE
  5
33D
100
AcDbEntity
  8
ALL_FEATURES
100
AcDbLine
 62
7
  6
CONTINUOUS
 10
660.8828184632
 20
534.5614200062
 11
660.8434948269
 21
534.6894114666
  0
LINE
  5
33E
100
AcDbEntity
  8
ALL_FEATURES
100
AcDbLine
 62
7
  6
CONTINUOUS
 10
659.9408600948
 20
484.3840351762
 11
659.9728713002
 21
484.4499242174
  0
LINE
  5
33F
100
AcDbEntity
  8
ALL_FEATURES
100
AcDbLine
 62
7
  6
CONTINUOUS
 10
659.6346913021
 20
483.6320747766
 11
659.6685021877
 21
483.7000978629
  0
LINE
  5
340
100
AcDbEntity
  8
ALL_AXES
100
AcDbLine
 62
7
  6
CONTINUOUS
 10
703.5637884523
 20
677.5561648625
 11
703.5637884523
 21
769.5561648625
  0
LINE
  5
341
100
AcDbEntity
  8
ALL_AXES
100
AcDbLine
 62
7
  6
CONTINUOUS
 10
705.0637884523
 20
677.5561648625
 11
705.0637884523
 21
769.5561648625
  0
LINE
  5
342
100
AcDbEntity
  8
ALL_FEATURES
100
AcDbLine
 62
7
  6
CONTINUOUS
 10
731.8414911129
 20
657.4957223257
 11
712.0637884523
 21
687.9648845866
  0
LINE
  5
343
100
AcDbEntity
  8
0
100
AcDbLine
 62
7
  6
CONTINUOUS
 10
710.0637884523
 20
799.5561648625
 11
710.0637884523
 21
657.5561648625
  0
LINE
  5
344
100
AcDbEntity
  8
0
100
AcDbLine
 62
7
  6
CONTINUOUS
 10
711.0637884523
 20
799.5561648625
 11
711.0637884523
 21
657.5561648625
  0
LINE
  5
345
100
AcDbEntity
  8
ALL_FEATURES
100
AcDbLine
 62
7
  6
CONTINUOUS
 10
712.0637884523
 20
687.9648845866
 11
712.0637884523
 21
728.5561648689
  0
LINE
  5
346
100
AcDbEntity
  8
0
100
AcDbLine
 62
7
  6
CONTINUOUS
 10
718.2637884523
 20
728.9061648625
 11
718.2637884523
 21
728.5561648625
  0
LINE
  5
347
100
AcDbEntity
  8
0
100
AcDbLine
 62
7
  6
CONTINUOUS
 10
710.0637884523
 20
657.5561648625
 11
711.0637884523
 21
657.5561648625
  0
LINE
  5
348
100
AcDbEntity
  8
0
100
AcDbLine
 62
7
  6
CONTINUOUS
 10
723.8637884523
 20
728.9061648625
 11
723.8637884523
 21
728.5561648625
  0
LINE
  5
349
100
AcDbEntity
  8
ALL_AXES
100
AcDbLine
 62
7
  6
CONTINUOUS
 10
705.0637884523
 20
677.5561648625
 11
703.5637884523
 21
677.5561648625
  0
LINE
  5
34A
100
AcDbEntity
  8
ALL_FEATURES
100
AcDbLine
 62
7
  6
CONTINUOUS
 10
711.0637884523
 20
691.9417899325
 11
712.0637884523
 21
691.9417899325
  0
LINE
  5
34B
100
AcDbEntity
  8
ALL_AXES
100
AcDbLine
 62
7
  6
CONTINUOUS
 10
705.0637884523
 20
698.8454867439
 11
703.5637884523
 21
698.8454867439
  0
LWPOLYLINE
  5
34C
100
AcDbEntity
  8
ALL_FEATURES
100
AcDbPolyline
 62
7
  6
CONTINUOUS
 90
6
 70
0
 10
825.0819842606
 20
758.8749054869
 10
825.0125184772
 20
758.8464713775
 10
824.9536276383
 20
758.8242498638
 10
824.9071025382
 20
758.8083062904
 10
824.8725021492
 20
758.7977538359
 10
824.8636329499
 20
758.7953069663
  0
LWPOLYLINE
  5
34D
100
AcDbEntity
  8
ALL_FEATURES
100
AcDbPolyline
 62
7
  6
CONTINUOUS
 90
18
 70
0
 10
842.6728175387
 20
784.1135958885
 10
842.1522681928
 20
783.6666354761
 10
841.5549622807
 20
783.1503412455
 10
840.8843900075
 20
782.5662347311
 10
840.1426158489
 20
781.9145135189
 10
839.3320590656
 20
781.1957057354
 10
838.4574874893
 20
780.4124662797
 10
837.5218321324
 20
779.5659235996
 10
836.5279309503
 20
778.6572722412
 10
835.4809179681
 20
777.6898917963
 10
834.3840573753
 20
776.6655981919
 10
833.2405710725
 20
775.5862625787
 10
832.0560089881
 20
774.4561208476
 10
830.8339512646
 20
773.2777484872
 10
829.5778717326
 20
772.0537840849
 10
828.2935328048
 20
770.7892876597
 10
826.9853945246
 20
769.4882432267
 10
825.6563939855
 20
768.1532668561
  0
LINE
  5
34E
100
AcDbEntity
  8
ALL_FEATURES
100
AcDbLine
 62
7
  6
CONTINUOUS
 10
843.1150258441
 20
784.4911219723
 11
842.6728175387
 21
784.1135958885
  0
LWPOLYLINE
  5
34F
100
AcDbEntity
  8
ALL_FEATURES
100
AcDbPolyline
 62
7
  6
CONTINUOUS
 90
3
 70
0
 10
843.4778836679
 20
784.7994433886
 10
843.114629196
 20
784.490787741
 10
842.6719005054
 20
784.1127993963
  0
LINE
  5
350
100
AcDbEntity
  8
ALL_FEATURES
100
AcDbLine
 62
7
  6
CONTINUOUS
 10
843.7602821506
 20
785.0384393358
 11
843.477950104
 21
784.7995010758
  0
LINE
  5
351
100
AcDbEntity
  8
ALL_FEATURES
100
AcDbLine
 62
7
  6
CONTINUOUS
 10
844.1244178167
 20
785.345092965
 11
843.7603214534
 21
785.0384762453
  0
LINE
  5
352
100
AcDbEntity
  8
ALL_FEATURES
100
AcDbLine
 62
7
  6
CONTINUOUS
 10
844.1241864354
 20
785.3448990973
 11
844.1213069315
 21
785.3424825377
  0
LWPOLYLINE
  5
353
100
AcDbEntity
  8
ALL_FEATURES
100
AcDbPolyline
 62
7
  6
CONTINUOUS
 90
3
 70
0
 10
825.8763465781
 20
759.291615127
 10
825.8602904131
 20
759.2820684759
 10
825.7160555795
 20
759.1979674518
  0
LINE
  5
354
100
AcDbEntity
  8
ALL_FEATURES
100
AcDbLine
 62
7
  6
CONTINUOUS
 10
825.7160555795
 20
759.1979674518
 11
825.5835909452
 21
759.1235721761
  0
LINE
  5
355
100
AcDbEntity
  8
ALL_FEATURES
100
AcDbLine
 62
7
  6
CONTINUOUS
 10
825.5835909452
 20
759.1235721761
 11
825.462464101
 21
759.0582323021
  0
LWPOLYLINE
  5
356
100
AcDbEntity
  8
ALL_FEATURES
100
AcDbPolyline
 62
7
  6
CONTINUOUS
 90
5
 70
0
 10
825.462464101
 20
759.0582323021
 10
825.3518118901
 20
759.0011030675
 10
825.2514584757
 20
758.9517336794
 10
825.1615200026
 20
758.9098044173
 10
825.0819842606
 20
758.8749054869
  0
LINE
  5
357
100
AcDbEntity
  8
0
100
AcDbLine
 62
7
  6
CONTINUOUS
 10
711.0637884523
 20
719.1575675048
 11
712.0637884523
 21
719.1575675048
  0
LINE
  5
358
100
AcDbEntity
  8
0
100
AcDbLine
 62
7
  6
CONTINUOUS
 10
711.0637884523
 20
721.8415630259
 11
712.0637884523
 21
721.8415630259
  0
LINE
  5
359
100
AcDbEntity
  8
ALL_FEATURES
100
AcDbLine
 62
7
  6
CONTINUOUS
 10
711.0637884523
 20
722.0561648625
 11
712.0637884523
 21
722.0561648625
  0
LINE
  5
35A
100
AcDbEntity
  8
ALL_FEATURES
100
AcDbLine
 62
7
  6
CONTINUOUS
 10
816.9421026382
 20
759.0940343192
 11
816.6134465839
 21
758.7432952918
  0
LINE
  5
35B
100
AcDbEntity
  8
ALL_FEATURES
100
AcDbLine
 62
7
  6
CONTINUOUS
 10
816.942126404
 20
759.0940597184
 11
816.6351885167
 21
758.7664636083
  0
LINE
  5
35C
100
AcDbEntity
  8
ALL_FEATURES
100
AcDbLine
 62
7
  6
CONTINUOUS
 10
816.6351885167
 20
758.7664636083
 11
816.3107068348
 21
758.4211115963
  0
LINE
  5
35D
100
AcDbEntity
  8
ALL_FEATURES
100
AcDbLine
 62
7
  6
CONTINUOUS
 10
816.3316946898
 20
758.4434118236
 11
816.006104553
 21
758.0978175635
  0
LWPOLYLINE
  5
35E
100
AcDbEntity
  8
ALL_FEATURES
100
AcDbPolyline
 62
7
  6
CONTINUOUS
 90
3
 70
0
 10
816.0267343
 20
758.1196732228
 10
815.6996393116
 20
757.7734318715
 10
815.3913017886
 20
757.4479641247
  0
LINE
  5
35F
100
AcDbEntity
  8
ALL_FEATURES
100
AcDbLine
 62
7
  6
CONTINUOUS
 10
815.7203078079
 20
757.7952654389
 11
815.4124081762
 21
757.4701984311
  0
LINE
  5
360
100
AcDbEntity
  8
ALL_FEATURES
100
AcDbLine
 62
7
  6
CONTINUOUS
 10
815.4124081762
 20
757.4701984311
 11
815.0087818137
 21
757.0455400525
  0
LINE
  5
361
100
AcDbEntity
  8
ALL_FEATURES
100
AcDbLine
 62
7
  6
CONTINUOUS
 10
815.1030364519
 20
757.1444907888
 11
814.75511232
 21
756.7792978552
  0
LWPOLYLINE
  5
362
100
AcDbEntity
  8
ALL_FEATURES
100
AcDbPolyline
 62
7
  6
CONTINUOUS
 90
10
 70
0
 10
824.5719428425
 20
767.0543438187
 10
823.9481386415
 20
766.4183870051
 10
823.0369987585
 20
765.4845648432
 10
822.1240564314
 20
764.5431066791
 10
821.2104413689
 20
763.5952620919
 10
820.2972467786
 20
762.6422112439
 10
819.385563086
 20
761.6851176137
 10
818.4763798299
 20
760.7252781633
 10
817.5707612125
 20
759.7639857767
 10
816.9424181859
 20
759.0937834101
  0
LINE
  5
363
100
AcDbEntity
  8
ALL_FEATURES
100
AcDbLine
 62
7
  6
CONTINUOUS
 10
825.6563939855
 20
768.1532668561
 11
824.5719457006
 21
767.0543467261
  0
LINE
  5
364
100
AcDbEntity
  8
ALL_FEATURES
100
AcDbLine
 62
7
  6
CONTINUOUS
 10
826.0750662837
 20
759.435737352
 11
825.8487266687
 21
759.2736663863
  0
LINE
  5
365
100
AcDbEntity
  8
ALL_FEATURES
100
AcDbLine
 62
7
  6
CONTINUOUS
 10
767.5408897066
 20
728.5561648625
 11
767.6421753754
 21
728.5563250483
  0
LINE
  5
366
100
AcDbEntity
  8
0
100
AcDbLine
 62
7
  6
CONTINUOUS
 10
718.26381126
 20
728.9061648625
 11
723.8637656445
 21
728.9061648625
  0
LWPOLYLINE
  5
367
100
AcDbEntity
  8
ALL_FEATURES
100
AcDbPolyline
 62
7
  6
CONTINUOUS
 90
3
 70
0
 10
828.9573427643
 20
761.8826832878
 10
828.7616832692
 20
761.6877461589
 10
828.555341756
 20
761.4886609509
  0
LINE
  5
368
100
AcDbEntity
  8
ALL_FEATURES
100
AcDbLine
 62
7
  6
CONTINUOUS
 10
828.555341756
 20
761.4886609509
 11
828.4318839176
 21
761.372350184
  0
LINE
  5
369
100
AcDbEntity
  8
ALL_FEATURES
100
AcDbLine
 62
7
  6
CONTINUOUS
 10
828.4316717195
 20
761.3721519614
 11
828.2860668943
 21
761.2374167959
  0
LINE
  5
36A
100
AcDbEntity
  8
ALL_FEATURES
100
AcDbLine
 62
7
  6
CONTINUOUS
 10
828.2860668943
 20
761.2374167959
 11
828.0354802083
 21
761.0111901006
  0
LWPOLYLINE
  5
36B
100
AcDbEntity
  8
ALL_FEATURES
100
AcDbPolyline
 62
7
  6
CONTINUOUS
 90
8
 70
0
 10
828.0354802083
 20
761.0111901006
 10
827.7722706031
 20
760.7805784757
 10
827.4987697354
 20
760.5478851856
 10
827.2188296947
 20
760.3164509662
 10
826.9339519056
 20
760.0874941596
 10
826.6459291212
 20
759.8625131531
 10
826.3588164034
 20
759.6446881812
 10
826.0750662837
 20
759.435737352
  0
LINE
  5
36C
100
AcDbEntity
  8
ALL_FEATURES
100
AcDbLine
 62
7
  6
CONTINUOUS
 10
828.9757698741
 20
762.6564084529
 11
827.5002184913
 21
760.5491177805
  0
LINE
  5
36D
100
AcDbEntity
  8
0
100
AcDbLine
 62
7
  6
CONTINUOUS
 10
828.4642071
 20
761.4028021519
 11
829.8670998702
 21
763.4063406653
  0
LINE
  5
36E
100
AcDbEntity
  8
ALL_FEATURES
100
AcDbLine
 62
7
  6
CONTINUOUS
 10
823.6866352688
 20
752.2541537516
 11
823.7523746387
 21
752.3210222376
  0
LINE
  5
36F
100
AcDbEntity
  8
ALL_FEATURES
100
AcDbLine
 62
7
  6
CONTINUOUS
 10
733.0202224894
 20
657.5696227517
 11
733.2680779199
 21
657.8070504508
  0
LINE
  5
370
100
AcDbEntity
  8
ALL_FEATURES
100
AcDbLine
 62
7
  6
CONTINUOUS
 10
733.2680779199
 20
657.8070504508
 11
733.5677341538
 21
658.0926772546
  0
LWPOLYLINE
  5
371
100
AcDbEntity
  8
ALL_FEATURES
100
AcDbPolyline
 62
7
  6
CONTINUOUS
 90
6
 70
0
 10
733.5677341538
 20
658.0926772546
 10
733.9793074703
 20
658.4825874869
 10
734.4994534643
 20
658.9713475898
 10
735.1256464407
 20
659.5536791538
 10
735.8532359936
 20
660.2236593797
 10
736.6854498055
 20
660.9787526475
  0
LINE
  5
372
100
AcDbEntity
  8
ALL_FEATURES
100
AcDbLine
 62
7
  6
CONTINUOUS
 10
736.6854498055
 20
660.9787526475
 11
737.4817065419
 21
661.6905077161
  0
LWPOLYLINE
  5
373
100
AcDbEntity
  8
ALL_FEATURES
100
AcDbPolyline
 62
7
  6
CONTINUOUS
 90
22
 70
0
 10
737.4817163953
 20
661.690516478
 10
738.3181338217
 20
662.4287023769
 10
739.3780347697
 20
663.3493060514
 10
740.5058621666
 20
664.3117647284
 10
741.6945860106
 20
665.307068632
 10
742.9363813293
 20
666.3266383524
 10
744.22497838
 20
667.3638532213
 10
745.5475995459
 20
668.4069901799
 10
746.8994440152
 20
669.4512438825
 10
748.2898325547
 20
670.5032555417
 10
749.7090469784
 20
671.5557476442
 10
751.1488864601
 20
672.6028456046
 10
752.6266407247
 20
673.6568378213
 10
754.1420567719
 20
674.7175361435
 10
755.6791249901
 20
675.7739016088
 10
757.2308676978
 20
676.8213781872
 10
758.790960773
 20
677.8568026067
 10
760.347860134
 20
678.8726837489
 10
761.8838608484
 20
679.8578882391
 10
763.3882239205
 20
680.8055874774
 10
764.8571110744
 20
681.7147514628
 10
765.8702116816
 20
682.3324715005
  0
LINE
  5
374
100
AcDbEntity
  8
ALL_AXES
100
AcDbLine
 62
7
  6
CONTINUOUS
 10
705.0637884523
 20
748.2668429812
 11
703.5637884523
 21
748.2668429812
  0
LINE
  5
375
100
AcDbEntity
  8
ALL_FEATURES
100
AcDbLine
 62
7
  6
CONTINUOUS
 10
814.0637884523
 20
755.0530237993
 11
814.0637884523
 21
746.7274574203
  0
LWPOLYLINE
  5
376
100
AcDbEntity
  8
ALL_FEATURES
100
AcDbPolyline
 62
7
  6
CONTINUOUS
 90
13
 70
0
 10
765.8702179397
 20
682.3324750662
 10
766.8278458472
 20
682.9091501713
 10
768.2426220154
 20
683.7484183149
 10
769.6494598359
 20
684.5675315742
 10
771.0340717874
 20
685.35866315
 10
772.4014184997
 20
686.125494504
 10
773.7751724514
 20
686.8814063055
 10
775.150422314
 20
687.6233933418
 10
776.5224759428
 20
688.3494284572
 10
777.9128031867
 20
689.0706255703
 10
779.3225866309
 20
689.7859946596
 10
780.7360099596
 20
690.4870883531
 10
781.790603355
 20
691.0000113165
  0
LWPOLYLINE
  5
377
100
AcDbEntity
  8
ALL_FEATURES
100
AcDbPolyline
 62
7
  6
CONTINUOUS
 90
16
 70
0
 10
830.1708501211
 20
763.3690797079
 10
830.1771184742
 20
763.4024724691
 10
830.183031803
 20
763.4256897901
 10
830.1806229791
 20
763.4196887092
 10
830.1667267946
 20
763.3877549
 10
830.1379427484
 20
763.3302237756
 10
830.0919295521
 20
763.2487060078
 10
830.0296148634
 20
763.1488134811
 10
829.9506432619
 20
763.032233074
 10
829.8541663028
 20
762.8996176935
 10
829.7416447997
 20
762.754387011
 10
829.6135770861
 20
762.5979113335
 10
829.4701489415
 20
762.4309539667
 10
829.3124953728
 20
762.2554031947
 10
829.1413121884
 20
762.07234097
 10
828.9573427643
 20
761.8826832878
  0
LWPOLYLINE
  5
378
100
AcDbEntity
  8
ALL_FEATURES
100
AcDbPolyline
 62
7
  6
CONTINUOUS
 90
17
 70
0
 10
781.7905222418
 20
690.9999721703
 10
783.1621130912
 20
691.6544952018
 10
784.8706138626
 20
692.4512442381
 10
786.5225739178
 20
693.2030153681
 10
788.1101349702
 20
693.9076659811
 10
789.6305096473
 20
694.5658658156
 10
791.0858216261
 20
695.1813923464
 10
792.4718098154
 20
695.7541978757
 10
793.7857004149
 20
696.2855558027
 10
795.0280180532
 20
696.7778113211
 10
796.1947477758
 20
697.2310513783
 10
797.2821385035
 20
697.6455518164
 10
798.288889208
 20
698.02236461
 10
799.2111745038
 20
698.3619177438
 10
800.0442089025
 20
698.6638082574
 10
800.7850324149
 20
698.9283497665
 10
801.42894054
 20
699.1558012271
  0
LINE
  5
379
100
AcDbEntity
  8
ALL_FEATURES
100
AcDbLine
 62
7
  6
CONTINUOUS
 10
801.42894054
 20
699.1558012271
 11
801.9783371227
 21
699.3484104401
  0
LINE
  5
37A
100
AcDbEntity
  8
ALL_FEATURES
100
AcDbLine
 62
7
  6
CONTINUOUS
 10
801.9713685039
 20
699.3460971279
 11
802.4063914911
 21
699.4971016403
  0
LINE
  5
37B
100
AcDbEntity
  8
ALL_FEATURES
100
AcDbLine
 62
7
  6
CONTINUOUS
 10
802.4063914911
 20
699.4971016403
 11
803.0002608164
 21
699.7012534842
  0
LINE
  5
37C
100
AcDbEntity
  8
ALL_AXES
100
AcDbLine
 62
7
  6
CONTINUOUS
 10
705.0637884523
 20
769.5561648625
 11
703.5637884523
 21
769.5561648625
  0
LINE
  5
37D
100
AcDbEntity
  8
0
100
AcDbLine
 62
7
  6
CONTINUOUS
 10
830.0920133847
 20
763.248854527
 11
829.8670998702
 21
763.4063406653
  0
LINE
  5
37E
100
AcDbEntity
  8
0
100
AcDbLine
 62
7
  6
CONTINUOUS
 10
710.0637884523
 20
799.5561648625
 11
711.0637884523
 21
799.5561648625
  0
LINE
  5
37F
100
AcDbEntity
  8
ALL_FEATURES
100
AcDbLine
 62
7
  6
CONTINUOUS
 10
873.1728165157
 20
798.7670033689
 11
871.9261689656
 21
799.5769623856
  0
LINE
  5
380
100
AcDbEntity
  8
ALL_FEATURES
100
AcDbLine
 62
7
  6
CONTINUOUS
 10
870.0200254222
 20
798.9945224682
 11
870.1002165752
 21
798.7829904539
  0
ARC
  5
381
100
AcDbEntity
  8
ALL_FEATURES
100
AcDbCircle
 62
7
  6
CONTINUOUS
 10
426.050643396
 20
458.5019119101
 40
245.1447636433
100
AcDbArc
 50
19.4225425329
 51
19.5648266582
  0
ARC
  5
382
100
AcDbEntity
  8
ALL_FEATURES
100
AcDbCircle
 62
7
  6
CONTINUOUS
 10
450.5354549121
 20
467.2012868032
 40
219.160440175
100
AcDbArc
 50
19.5845404812
 51
19.7618893182
  0
ARC
  5
383
100
AcDbEntity
  8
ALL_FEATURES
100
AcDbCircle
 62
7
  6
CONTINUOUS
 10
491.2255577868
 20
482.4038730459
 40
177.4937223691
100
AcDbArc
 50
17.1321032679
 51
19.1720225676
  0
ARC
  5
384
100
AcDbEntity
  8
ALL_FEATURES
100
AcDbCircle
 62
7
  6
CONTINUOUS
 10
528.9389580663
 20
373.4339373269
 40
171.9991495573
100
AcDbArc
 50
44.2807076084
 51
44.5387347646
  0
ARC
  5
385
100
AcDbEntity
  8
ALL_FEATURES
100
AcDbCircle
 62
7
  6
CONTINUOUS
 10
496.7517842701
 20
483.2139771325
 40
169.7463310827
100
AcDbArc
 50
19.9694903333
 51
27.1780135867
  0
ARC
  5
386
100
AcDbEntity
  8
ALL_FEATURES
100
AcDbCircle
 62
7
  6
CONTINUOUS
 10
561.7289076458
 20
425.8309682919
 40
103.301633051
100
AcDbArc
 50
139.3541319166
 51
139.5285517861
  0
ARC
  5
387
100
AcDbEntity
  8
ALL_FEATURES
100
AcDbCircle
 62
7
  6
CONTINUOUS
 10
552.8716223157
 20
457.9328818469
 40
93.1801622531
100
AcDbArc
 50
115.7065482064
 51
117.48558917
  0
ARC
  5
388
100
AcDbEntity
  8
ALL_CURVES
100
AcDbCircle
 62
7
  6
CONTINUOUS
 10
552.003462896
 20
460.2304036089
 40
91.2965618522
100
AcDbArc
 50
115.6881561079
 51
118.3392167933
  0
ARC
  5
389
100
AcDbEntity
  8
ALL_CURVES
100
AcDbCircle
 62
7
  6
CONTINUOUS
 10
552.7417436009
 20
461.7685403897
 40
90.3089798114
100
AcDbArc
 50
119.4439606468
 51
119.7865569209
  0
ARC
  5
38A
100
AcDbEntity
  8
ALL_FEATURES
100
AcDbCircle
 62
7
  6
CONTINUOUS
 10
551.2733879866
 20
461.591336923
 40
90.2660731723
100
AcDbArc
 50
115.6458688783
 51
118.5796397927
  0
ARC
  5
38B
100
AcDbEntity
  8
ALL_FEATURES
100
AcDbCircle
 62
7
  6
CONTINUOUS
 10
549.5873159147
 20
465.1104049466
 40
86.3694484031
100
AcDbArc
 50
118.7141878645
 51
119.0755956434
  0
ARC
  5
38C
100
AcDbEntity
  8
ALL_FEATURES
100
AcDbCircle
 62
7
  6
CONTINUOUS
 10
545.4217251659
 20
472.2731406565
 40
77.0202153601
100
AcDbArc
 50
117.4925749275
 51
118.7496858774
  0
ARC
  5
38D
100
AcDbEntity
  8
ALL_CURVES
100
AcDbCircle
 62
7
  6
CONTINUOUS
 10
544.8888279337
 20
473.4989529254
 40
76.2409704104
100
AcDbArc
 50
118.4119654441
 51
118.6381166381
  0
ARC
  5
38E
100
AcDbEntity
  8
ALL_AXES
100
AcDbCircle
 62
7
  6
CONTINUOUS
 10
565.4850700482
 20
460.2718768685
 40
26.327152505
100
AcDbArc
 50
109.0493060811
 51
110.2238890637
  0
ARC
  5
38F
100
AcDbEntity
  8
ALL_AXES
100
AcDbCircle
 62
7
  6
CONTINUOUS
 10
559.6423744012
 20
479.6458988402
 40
12.8018355563
100
AcDbArc
 50
226.9901418675
 51
228.6502633908
  0
ARC
  5
390
100
AcDbEntity
  8
ALL_AXES
100
AcDbCircle
 62
7
  6
CONTINUOUS
 10
559.0256338286
 20
478.9918922486
 40
11.9029095003
100
AcDbArc
 50
223.3651110886
 51
227.0135812393
  0
ARC
  5
391
100
AcDbEntity
  8
0
100
AcDbCircle
 62
7
  6
CONTINUOUS
 10
493.9188007178
 20
483.1193517312
 40
4.8500470931
100
AcDbArc
 50
265.4989620589
 51
269.956394275
  0
ARC
  5
392
100
AcDbEntity
  8
0
100
AcDbCircle
 62
7
  6
CONTINUOUS
 10
493.9200981543
 20
483.1193517312
 40
4.8500470931
100
AcDbArc
 50
270.043605725
 51
274.5010379411
  0
ARC
  5
393
100
AcDbEntity
  8
0
100
AcDbCircle
 62
7
  6
CONTINUOUS
 10
493.6794809786
 20
481.9868347473
 40
3.689478125
100
AcDbArc
 50
250.7749979362
 51
252.5797688323
  0
ARC
  5
394
100
AcDbEntity
  8
0
100
AcDbCircle
 62
7
  6
CONTINUOUS
 10
493.6202097566
 20
481.8182799567
 40
3.5108064467
100
AcDbArc
 50
248.9171047915
 51
250.7825756594
  0
ARC
  5
395
100
AcDbEntity
  8
0
100
AcDbCircle
 62
7
  6
CONTINUOUS
 10
493.5119840258
 20
481.5457611591
 40
3.217600375
100
AcDbArc
 50
245.0046337307
 51
248.9696570332
  0
ARC
  5
396
100
AcDbEntity
  8
0
100
AcDbCircle
 62
7
  6
CONTINUOUS
 10
493.3999861284
 20
481.3049874365
 40
2.952052908
100
AcDbArc
 50
242.9054676202
 51
245.0001827166
  0
ARC
  5
397
100
AcDbEntity
  8
0
100
AcDbCircle
 62
7
  6
CONTINUOUS
 10
494.9151906005
 20
480.2524560798
 40
2.0486030882
100
AcDbArc
 50
307.1699280619
 51
309.0917160913
  0
ARC
  5
398
100
AcDbEntity
  8
0
100
AcDbCircle
 62
7
  6
CONTINUOUS
 10
495.0014389849
 20
480.4341583563
 40
1.9127229611
100
AcDbArc
 50
309.0698236389
 51
311.8686276745
  0
ARC
  5
399
100
AcDbEntity
  8
0
100
AcDbCircle
 62
7
  6
CONTINUOUS
 10
495.0014775832
 20
480.1474095813
 40
1.9126632624
100
AcDbArc
 50
309.0697861267
 51
311.8705904831
  0
ARC
  5
39A
100
AcDbEntity
  8
ALL_FEATURES
100
AcDbCircle
 62
7
  6
CONTINUOUS
 10
496.222221759
 20
480.1219272253
 40
1.147228002
100
AcDbArc
 50
350.1328671721
 51
359.9568752521
  0
ARC
  5
39B
100
AcDbEntity
  8
ALL_FEATURES
100
AcDbCircle
 62
7
  6
CONTINUOUS
 10
496.2493186385
 20
480.1210559222
 40
1.1201307976
100
AcDbArc
 50
0.0004000231
 51
1.270829999
  0
ARC
  5
39C
100
AcDbEntity
  8
ALL_FEATURES
100
AcDbCircle
 62
7
  6
CONTINUOUS
 10
528.8279985715
 20
501.4931961273
 40
132.7602778028
100
AcDbArc
 50
37.0344113969
 51
37.3648069617
  0
ARC
  5
39D
100
AcDbEntity
  8
ALL_FEATURES
100
AcDbCircle
 62
7
  6
CONTINUOUS
 10
532.5172520154
 20
502.3845687849
 40
129.9901000081
100
AcDbArc
 50
45.1494771921
 51
46.1149647768
  0
ARC
  5
39E
100
AcDbEntity
  8
ALL_FEATURES
100
AcDbCircle
 62
7
  6
CONTINUOUS
 10
536.1777923428
 20
504.8813523998
 40
125.5663524387
100
AcDbArc
 50
45.5334836021
 51
46.5291371809
  0
ARC
  5
39F
100
AcDbEntity
  8
ALL_FEATURES
100
AcDbCircle
 62
7
  6
CONTINUOUS
 10
548.0650137274
 20
497.1755884769
 40
116.5777181851
100
AcDbArc
 50
11.4902465343
 51
14.3892528607
  0
ARC
  5
3A0
100
AcDbEntity
  8
ALL_FEATURES
100
AcDbCircle
 62
7
  6
CONTINUOUS
 10
562.1341896844
 20
500.0566113962
 40
102.2166069098
100
AcDbArc
 50
10.1367172355
 51
11.4786504086
  0
ARC
  5
3A1
100
AcDbEntity
  8
ALL_FEATURES
100
AcDbCircle
 62
7
  6
CONTINUOUS
 10
565.8082781105
 20
500.721021996
 40
98.4829344234
100
AcDbArc
 50
9.9705867654
 51
10.1324069055
  0
ARC
  5
3A2
100
AcDbEntity
  8
ALL_FEATURES
100
AcDbCircle
 62
7
  6
CONTINUOUS
 10
560.6218287737
 20
502.2533772899
 40
90.3293139802
100
AcDbArc
 50
169.8554190968
 51
173.3892781874
  0
ARC
  5
3A3
100
AcDbEntity
  8
ALL_FEATURES
100
AcDbCircle
 62
7
  6
CONTINUOUS
 10
552.497812524
 20
503.2845165525
 40
82.1406524005
100
AcDbArc
 50
173.4767381759
 51
173.7954279598
  0
ARC
  5
3A4
100
AcDbEntity
  8
ALL_FEATURES
100
AcDbCircle
 62
7
  6
CONTINUOUS
 10
534.7441565395
 20
504.4020877547
 40
64.3441166753
100
AcDbArc
 50
180.0104436406
 51
180.4965146095
  0
ARC
  5
3A5
100
AcDbEntity
  8
ALL_FEATURES
100
AcDbCircle
 62
7
  6
CONTINUOUS
 10
530.9504599265
 20
505.1914217582
 40
60.4694472124
100
AcDbArc
 50
180.7597000949
 51
181.2746371477
  0
ARC
  5
3A6
100
AcDbEntity
  8
ALL_FEATURES
100
AcDbCircle
 62
7
  6
CONTINUOUS
 10
524.6070962435
 20
508.4529446453
 40
55.6113624448
100
AcDbArc
 50
205.7723719766
 51
206.7798330298
  0
ARC
  5
3A7
100
AcDbEntity
  8
ALL_FEATURES
100
AcDbCircle
 62
7
  6
CONTINUOUS
 10
524.5782486879
 20
508.455173845
 40
55.0027639653
100
AcDbArc
 50
205.952972278
 51
206.7911688464
  0
ARC
  5
3A8
100
AcDbEntity
  8
ALL_FEATURES
100
AcDbCircle
 62
7
  6
CONTINUOUS
 10
523.7707589175
 20
507.3446192576
 40
53.8451938375
100
AcDbArc
 50
205.6561391088
 51
206.0477700601
  0
ARC
  5
3A9
100
AcDbEntity
  8
ALL_FEATURES
100
AcDbCircle
 62
7
  6
CONTINUOUS
 10
522.7018589198
 20
507.5337838075
 40
52.9123862621
100
AcDbArc
 50
205.4704802203
 51
205.8660467278
  0
ARC
  5
3AA
100
AcDbEntity
  8
ALL_FEATURES
100
AcDbCircle
 62
7
  6
CONTINUOUS
 10
525.5876644599
 20
502.0959979568
 40
44.5259115768
100
AcDbArc
 50
181.287216616
 51
186.0698655373
  0
ARC
  5
3AB
100
AcDbEntity
  8
ALL_FEATURES
100
AcDbCircle
 62
7
  6
CONTINUOUS
 10
523.7933895472
 20
503.2904933502
 40
43.5458858969
100
AcDbArc
 50
180.816920778
 51
182.2598382227
  0
ARC
  5
3AC
100
AcDbEntity
  8
ALL_FEATURES
100
AcDbCircle
 62
7
  6
CONTINUOUS
 10
523.5241173207
 20
502.8271558546
 40
42.5519527824
100
AcDbArc
 50
181.1749875011
 51
186.1161385829
  0
ARC
  5
3AD
100
AcDbEntity
  8
ALL_FEATURES
100
AcDbCircle
 62
7
  6
CONTINUOUS
 10
522.8624008506
 20
501.8368405026
 40
41.78853414
100
AcDbArc
 50
186.1116395964
 51
191.8400422452
  0
ARC
  5
3AE
100
AcDbEntity
  8
ALL_FEATURES
100
AcDbCircle
 62
7
  6
CONTINUOUS
 10
521.4148782433
 20
502.6612320909
 40
40.9898161716
100
AcDbArc
 50
193.4062973439
 51
193.8173489065
  0
ARC
  5
3AF
100
AcDbEntity
  8
ALL_FEATURES
100
AcDbCircle
 62
7
  6
CONTINUOUS
 10
521.4013181774
 20
502.6579923155
 40
40.9758744546
100
AcDbArc
 50
193.1506062767
 51
193.4062868202
  0
ARC
  5
3B0
100
AcDbEntity
  8
ALL_FEATURES
100
AcDbCircle
 62
7
  6
CONTINUOUS
 10
508.3681934364
 20
500.521802776
 40
37.5416375965
100
AcDbArc
 50
200.7217957136
 51
202.1206491776
  0
ARC
  5
3B1
100
AcDbEntity
  8
ALL_FEATURES
100
AcDbCircle
 62
7
  6
CONTINUOUS
 10
508.0325416323
 20
500.4849233088
 40
36.6386986802
100
AcDbArc
 50
201.2930084335
 51
202.2582928985
  0
ARC
  5
3B2
100
AcDbEntity
  8
ALL_FEATURES
100
AcDbCircle
 62
7
  6
CONTINUOUS
 10
507.0979448568
 20
499.9970105841
 40
36.1672742983
100
AcDbArc
 50
202.1082270168
 51
205.7694393649
  0
ARC
  5
3B3
100
AcDbEntity
  8
ALL_FEATURES
100
AcDbCircle
 62
7
  6
CONTINUOUS
 10
507.5347297131
 20
499.5425958128
 40
35.8319054141
100
AcDbArc
 50
204.3701369029
 51
204.8450327459
  0
ARC
  5
3B4
100
AcDbEntity
  8
ALL_FEATURES
100
AcDbCircle
 62
7
  6
CONTINUOUS
 10
507.1349897984
 20
500.1113283012
 40
35.6665164921
100
AcDbArc
 50
202.2490079895
 51
205.4600538132
  0
ARC
  5
3B5
100
AcDbEntity
  8
ALL_FEATURES
100
AcDbCircle
 62
7
  6
CONTINUOUS
 10
507.2088866497
 20
499.3910808153
 40
35.4725575339
100
AcDbArc
 50
204.9520092011
 51
205.6588089993
  0
ARC
  5
3B6
100
AcDbEntity
  8
ALL_FEATURES
100
AcDbCircle
 62
7
  6
CONTINUOUS
 10
510.208674614
 20
502.6760524039
 40
29.7943733622
100
AcDbArc
 50
180.0191112941
 51
181.2248425712
  0
ARC
  5
3B7
100
AcDbEntity
  8
ALL_FEATURES
100
AcDbCircle
 62
7
  6
CONTINUOUS
 10
501.0975654404
 20
514.7149379745
 40
28.2267270797
100
AcDbArc
 50
229.8521878261
 51
230.572376526
  0
ARC
  5
3B8
100
AcDbEntity
  8
ALL_FEATURES
100
AcDbCircle
 62
7
  6
CONTINUOUS
 10
492.4270254082
 20
496.5197455797
 40
10.95926337
100
AcDbArc
 50
197.2894386407
 51
199.1225659174
  0
ARC
  5
3B9
100
AcDbEntity
  8
ALL_FEATURES
100
AcDbCircle
 62
7
  6
CONTINUOUS
 10
492.3388824674
 20
496.4896402807
 40
10.8661219722
100
AcDbArc
 50
199.124836748
 51
199.4671147696
  0
CIRCLE
  5
3BA
100
AcDbEntity
  8
0
100
AcDbCircle
 62
7
  6
CONTINUOUS
 10
507.5316087578
 20
565.921130343
 40
4.48
  0
ARC
  5
3BB
100
AcDbEntity
  8
ALL_FEATURES
100
AcDbCircle
 62
7
  6
CONTINUOUS
 10
473.0945719565
 20
503.0152436176
 40
2.7346660673
100
AcDbArc
 50
139.9789504572
 51
143.6985317027
  0
ARC
  5
3BC
100
AcDbEntity
  8
ALL_FEATURES
100
AcDbCircle
 62
3
  6
CONTINUOUS
 10
520.6825949069
 20
596.195542604
 40
2.7204471803
100
AcDbArc
 50
357.4363393372
 51
359.9661602928
  0
ARC
  5
3BD
100
AcDbEntity
  8
ALL_FEATURES
100
AcDbCircle
 62
7
  6
CONTINUOUS
 10
473.0233433701
 20
503.0661805949
 40
2.6471058383
100
AcDbArc
 50
143.6743122673
 51
153.3339707951
  0
ARC
  5
3BE
100
AcDbEntity
  8
ALL_FEATURES
100
AcDbCircle
 62
7
  6
CONTINUOUS
 10
472.8917200685
 20
503.1318915875
 40
2.4999919407
100
AcDbArc
 50
153.3259652825
 51
163.3956473194
  0
ARC
  5
3BF
100
AcDbEntity
  8
ALL_FEATURES
100
AcDbCircle
 62
7
  6
CONTINUOUS
 10
472.582592406
 20
504.391022057
 40
2.1825515562
100
AcDbArc
 50
178.5608653784
 51
179.9988873692
  0
ARC
  5
3C0
100
AcDbEntity
  8
ALL_FEATURES
100
AcDbCircle
 62
7
  6
CONTINUOUS
 10
707.788470074
 20
458.9369627231
 40
243.8456485892
100
AcDbArc
 50
160.435176338
 51
160.5788133643
  0
ARC
  5
3C1
100
AcDbEntity
  8
ALL_FEATURES
100
AcDbCircle
 62
7
  6
CONTINUOUS
 10
684.8076655832
 20
467.1010396749
 40
219.4577532721
100
AcDbArc
 50
160.2381878041
 51
160.4017209242
  0
ARC
  5
3C2
100
AcDbEntity
  8
ALL_FEATURES
100
AcDbCircle
 62
7
  6
CONTINUOUS
 10
667.1962436685
 20
472.8186401963
 40
200.444890906
100
AcDbArc
 50
160.3110893191
 51
160.4624890683
  0
ARC
  5
3C3
100
AcDbEntity
  8
ALL_FEATURES
100
AcDbCircle
 62
7
  6
CONTINUOUS
 10
643.8347544244
 20
482.4047564105
 40
177.4906881004
100
AcDbArc
 50
160.8279387767
 51
162.867897806
  0
ARC
  5
3C4
100
AcDbEntity
  8
ALL_FEATURES
100
AcDbCircle
 62
7
  6
CONTINUOUS
 10
606.124228844
 20
373.4339672622
 40
171.999106746
100
AcDbArc
 50
135.461263464
 51
135.7192924129
  0
ARC
  5
3C5
100
AcDbEntity
  8
ALL_FEATURES
100
AcDbCircle
 62
7
  6
CONTINUOUS
 10
637.5872347445
 20
483.5305440623
 40
168.9575707951
100
AcDbArc
 50
152.805069707
 51
160.0475157525
  0
ARC
  5
3C6
100
AcDbEntity
  8
ALL_FEATURES
100
AcDbCircle
 62
7
  6
CONTINUOUS
 10
567.6259085205
 20
408.536247169
 40
145.5106631768
100
AcDbArc
 50
81.0380376252
 51
90.0371311536
  0
ARC
  5
3C7
100
AcDbEntity
  8
ALL_FEATURES
100
AcDbCircle
 62
7
  6
CONTINUOUS
 10
567.4372249058
 20
408.5383118822
 40
145.5085985186
100
AcDbArc
 50
89.9628352083
 51
98.9660585189
  0
ARC
  5
3C8
100
AcDbEntity
  8
ALL_FEATURES
100
AcDbCircle
 62
7
  6
CONTINUOUS
 10
572.71029369
 20
425.3034309423
 40
104.1186903991
100
AcDbArc
 50
40.4694654754
 51
40.642476009
  0
ARC
  5
3C9
100
AcDbEntity
  8
ALL_FEATURES
100
AcDbCircle
 62
7
  6
CONTINUOUS
 10
582.1915952
 20
457.9328818474
 40
93.1801622525
100
AcDbArc
 50
62.51441083
 51
64.2934517936
  0
ARC
  5
3CA
100
AcDbEntity
  8
ALL_FEATURES
100
AcDbCircle
 62
7
  6
CONTINUOUS
 10
582.7401351698
 20
459.5474766136
 40
92.5580274678
100
AcDbArc
 50
61.4607446136
 51
64.3159643805
  0
ARC
  5
3CB
100
AcDbEntity
  8
ALL_FEATURES
100
AcDbCircle
 62
7
  6
CONTINUOUS
 10
583.0597546196
 20
460.2304036092
 40
91.2965618519
100
AcDbArc
 50
61.6607832067
 51
64.3118438921
  0
ARC
  5
3CC
100
AcDbEntity
  8
ALL_FEATURES
100
AcDbCircle
 62
7
  6
CONTINUOUS
 10
582.3144923141
 20
461.7562291962
 40
90.3231328127
100
AcDbArc
 50
60.2185862995
 51
60.5560215938
  0
ARC
  5
3CD
100
AcDbEntity
  8
ALL_FEATURES
100
AcDbCircle
 62
7
  6
CONTINUOUS
 10
585.5447050159
 20
465.2322232808
 40
86.2244899395
100
AcDbArc
 50
60.9310674136
 51
61.2931837217
  0
ARC
  5
3CE
100
AcDbEntity
  8
ALL_FEATURES
100
AcDbCircle
 62
7
  6
CONTINUOUS
 10
589.6414923502
 20
472.2731406575
 40
77.0202153589
100
AcDbArc
 50
61.2503141226
 51
62.5074250725
  0
ARC
  5
3CF
100
AcDbEntity
  8
ALL_FEATURES
100
AcDbCircle
 62
7
  6
CONTINUOUS
 10
590.1743895897
 20
473.49895294
 40
76.2409703938
100
AcDbArc
 50
61.3618833619
 51
61.588034556
  0
ARC
  5
3D0
100
AcDbEntity
  8
ALL_AXES
100
AcDbCircle
 62
7
  6
CONTINUOUS
 10
569.5781165001
 20
460.2719717266
 40
26.3270517911
100
AcDbArc
 50
69.7759767433
 51
70.9505627208
  0
ARC
  5
3D1
100
AcDbEntity
  8
ALL_AXES
100
AcDbCircle
 62
7
  6
CONTINUOUS
 10
575.4204697159
 20
479.6463069523
 40
12.8023886867
100
AcDbArc
 50
311.3466618789
 51
313.0098342311
  0
ARC
  5
3D2
100
AcDbEntity
  8
ALL_AXES
100
AcDbCircle
 62
7
  6
CONTINUOUS
 10
576.037583687
 20
478.9918922485
 40
11.9029095002
100
AcDbArc
 50
312.9864187607
 51
316.6348889114
  0
ARC
  5
3D3
100
AcDbEntity
  8
0
100
AcDbCircle
 62
7
  6
CONTINUOUS
 10
641.1431193612
 20
483.1193517311
 40
4.8500470931
100
AcDbArc
 50
265.4989620589
 51
269.956394275
  0
ARC
  5
3D4
100
AcDbEntity
  8
0
100
AcDbCircle
 62
7
  6
CONTINUOUS
 10
641.1444167977
 20
483.1193517311
 40
4.8500470931
100
AcDbArc
 50
270.043605725
 51
274.5010379411
  0
ARC
  5
3D5
100
AcDbEntity
  8
0
100
AcDbCircle
 62
7
  6
CONTINUOUS
 10
641.383736537
 20
481.9868347472
 40
3.6894781249
100
AcDbArc
 50
287.4202311676
 51
289.2250020638
  0
ARC
  5
3D6
100
AcDbEntity
  8
0
100
AcDbCircle
 62
7
  6
CONTINUOUS
 10
641.443007759
 20
481.8182799562
 40
3.5108064462
100
AcDbArc
 50
289.2174243404
 51
291.0828952087
  0
ARC
  5
3D7
100
AcDbEntity
  8
0
100
AcDbCircle
 62
7
  6
CONTINUOUS
 10
641.5512334897
 20
481.5457611592
 40
3.217600375
100
AcDbArc
 50
291.0303429668
 51
294.9953662693
  0
ARC
  5
3D8
100
AcDbEntity
  8
0
100
AcDbCircle
 62
7
  6
CONTINUOUS
 10
641.6632313871
 20
481.3049874365
 40
2.952052908
100
AcDbArc
 50
294.9998172834
 51
297.0945323798
  0
ARC
  5
3D9
100
AcDbEntity
  8
0
100
AcDbCircle
 62
7
  6
CONTINUOUS
 10
640.0911700585
 20
480.181131846
 40
1.9574179297
100
AcDbArc
 50
228.1467576613
 51
232.893408847
  0
ARC
  5
3DA
100
AcDbEntity
  8
ALL_FEATURES
100
AcDbCircle
 62
7
  6
CONTINUOUS
 10
638.8409916908
 20
480.1219273574
 40
1.1472239364
100
AcDbArc
 50
180.0431314936
 51
189.865785168
  0
ARC
  5
3DB
100
AcDbEntity
  8
ALL_FEATURES
100
AcDbCircle
 62
7
  6
CONTINUOUS
 10
638.8139266898
 20
480.1210557168
 40
1.1201586104
100
AcDbArc
 50
178.7131981812
 51
179.999589481
  0
ARC
  5
3DC
100
AcDbEntity
  8
ALL_FEATURES
100
AcDbCircle
 62
7
  6
CONTINUOUS
 10
606.0251532416
 20
501.6586276526
 40
132.4930097966
100
AcDbArc
 50
142.6368237118
 51
142.9678852691
  0
ARC
  5
3DD
100
AcDbEntity
  8
ALL_FEATURES
100
AcDbCircle
 62
7
  6
CONTINUOUS
 10
602.8667252179
 20
502.0545889187
 40
130.450282131
100
AcDbArc
 50
133.8861048539
 51
134.7701352121
  0
ARC
  5
3DE
100
AcDbEntity
  8
ALL_FEATURES
100
AcDbCircle
 62
7
  6
CONTINUOUS
 10
599.1922807718
 20
504.5611771837
 40
126.0098234538
100
AcDbArc
 50
133.4719762156
 51
134.3832647925
  0
ARC
  5
3DF
100
AcDbEntity
  8
ALL_FEATURES
100
AcDbCircle
 62
7
  6
CONTINUOUS
 10
590.8295304002
 20
496.2949863111
 40
120.5077329252
100
AcDbArc
 50
165.6578833718
 51
168.4623170694
  0
ARC
  5
3E0
100
AcDbEntity
  8
ALL_FEATURES
100
AcDbCircle
 62
7
  6
CONTINUOUS
 10
574.2699934327
 20
499.8010554308
 40
103.5816243267
100
AcDbArc
 50
168.5304154051
 51
169.8546730402
  0
ARC
  5
3E1
100
AcDbEntity
  8
ALL_FEATURES
100
AcDbCircle
 62
7
  6
CONTINUOUS
 10
569.2563074073
 20
500.7212068167
 40
98.4842536599
100
AcDbArc
 50
169.8678361382
 51
170.0306848919
  0
ARC
  5
3E2
100
AcDbEntity
  8
ALL_FEATURES
100
AcDbCircle
 62
7
  6
CONTINUOUS
 10
574.4414180623
 20
502.2533823288
 40
90.3292842306
100
AcDbArc
 50
6.6106964272
 51
10.1445812204
  0
ARC
  5
3E3
100
AcDbEntity
  8
ALL_FEATURES
100
AcDbCircle
 62
7
  6
CONTINUOUS
 10
582.580543236
 20
503.2861906494
 40
82.1254218943
100
AcDbArc
 50
6.2043553821
 51
6.5156273369
  0
ARC
  5
3E4
100
AcDbEntity
  8
ALL_FEATURES
100
AcDbCircle
 62
7
  6
CONTINUOUS
 10
600.3191055598
 20
504.4020875531
 40
64.3440720915
100
AcDbArc
 50
359.5034602998
 51
359.9895566979
  0
ARC
  5
3E5
100
AcDbEntity
  8
ALL_FEATURES
100
AcDbCircle
 62
7
  6
CONTINUOUS
 10
604.0980400528
 20
505.1916573984
 40
60.4841738392
100
AcDbArc
 50
358.725427724
 51
359.2406808962
  0
ARC
  5
3E6
100
AcDbEntity
  8
ALL_FEATURES
100
AcDbCircle
 62
7
  6
CONTINUOUS
 10
610.4561238307
 20
508.452943392
 40
55.6113595953
100
AcDbArc
 50
333.2201738003
 51
334.2276280406
  0
ARC
  5
3E7
100
AcDbEntity
  8
ALL_FEATURES
100
AcDbCircle
 62
7
  6
CONTINUOUS
 10
610.4850194182
 20
508.4551452049
 40
55.0027067086
100
AcDbArc
 50
333.208840588
 51
334.0470307277
  0
ARC
  5
3E8
100
AcDbEntity
  8
ALL_FEATURES
100
AcDbCircle
 62
7
  6
CONTINUOUS
 10
610.1025559959
 20
502.0556873025
 40
43.898169141
100
AcDbArc
 50
353.8959183
 51
358.7469995467
  0
ARC
  5
3E9
100
AcDbEntity
  8
ALL_FEATURES
100
AcDbCircle
 62
7
  6
CONTINUOUS
 10
611.2518721684
 20
503.2813617406
 40
43.5613628568
100
AcDbArc
 50
357.7527905818
 51
359.1952566183
  0
ARC
  5
3EA
100
AcDbEntity
  8
ALL_FEATURES
100
AcDbCircle
 62
7
  6
CONTINUOUS
 10
611.5391001949
 20
502.8271558546
 40
42.5519527823
100
AcDbArc
 50
353.8838614171
 51
358.8250124989
  0
ARC
  5
3EB
100
AcDbEntity
  8
ALL_FEATURES
100
AcDbCircle
 62
7
  6
CONTINUOUS
 10
612.0484686307
 20
501.8609042153
 40
41.9425789562
100
AcDbArc
 50
348.1704859876
 51
353.8778321708
  0
ARC
  5
3EC
100
AcDbEntity
  8
ALL_FEATURES
100
AcDbCircle
 62
7
  6
CONTINUOUS
 10
613.6468022616
 20
502.6496318151
 40
40.9885209088
100
AcDbArc
 50
346.1990847125
 51
346.6101500809
  0
ARC
  5
3ED
100
AcDbEntity
  8
ALL_FEATURES
100
AcDbCircle
 62
7
  6
CONTINUOUS
 10
613.658830704
 20
502.6467614559
 40
40.9761547315
100
AcDbArc
 50
346.6101596459
 51
346.8655530217
  0
CIRCLE
  5
3EE
100
AcDbEntity
  8
0
100
AcDbCircle
 62
7
  6
CONTINUOUS
 10
567.5316087578
 20
587.0726155255
 40
2.8
  0
ARC
  5
3EF
100
AcDbEntity
  8
ALL_FEATURES
100
AcDbCircle
 62
3
  6
CONTINUOUS
 10
614.3806226085
 20
596.195542604
 40
2.7204471801
100
AcDbArc
 50
180.0338397071
 51
182.5636606628
  0
ARC
  5
3F0
100
AcDbEntity
  8
ALL_FEATURES
100
AcDbCircle
 62
7
  6
CONTINUOUS
 10
626.4111007119
 20
500.6309496021
 40
37.8458133315
100
AcDbArc
 50
338.8418123942
 51
339.2626979304
  0
ARC
  5
3F1
100
AcDbEntity
  8
ALL_FEATURES
100
AcDbCircle
 62
7
  6
CONTINUOUS
 10
625.82565625
 20
500.2834263184
 40
37.6874815818
100
AcDbArc
 50
334.2046304219
 51
334.453962792
  0
ARC
  5
3F2
100
AcDbEntity
  8
ALL_FEATURES
100
AcDbCircle
 62
7
  6
CONTINUOUS
 10
626.8244646908
 20
500.4702200736
 40
37.4023009028
100
AcDbArc
 50
337.8798042251
 51
338.8428740678
  0
ARC
  5
3F3
100
AcDbEntity
  8
ALL_FEATURES
100
AcDbCircle
 62
7
  6
CONTINUOUS
 10
627.039115913
 20
500.4828157156
 40
36.6300197578
100
AcDbArc
 50
337.7418128107
 51
338.7073669903
  0
ARC
  5
3F4
100
AcDbEntity
  8
ALL_FEATURES
100
AcDbCircle
 62
7
  6
CONTINUOUS
 10
626.8898120829
 20
499.7688914323
 40
36.5054605374
100
AcDbArc
 50
333.8849491738
 51
334.2049242813
  0
ARC
  5
3F5
100
AcDbEntity
  8
ALL_FEATURES
100
AcDbCircle
 62
7
  6
CONTINUOUS
 10
627.818366182
 20
500.0622323492
 40
36.3279266505
100
AcDbArc
 50
334.2386549526
 51
337.8856457209
  0
ARC
  5
3F6
100
AcDbEntity
  8
ALL_FEATURES
100
AcDbCircle
 62
7
  6
CONTINUOUS
 10
627.3085993135
 20
500.3333257026
 40
36.3213038286
100
AcDbArc
 50
334.0680964089
 51
334.6435065559
  0
ARC
  5
3F7
100
AcDbEntity
  8
ALL_FEATURES
100
AcDbCircle
 62
7
  6
CONTINUOUS
 10
627.5377247491
 20
499.5400791321
 40
35.8223375648
100
AcDbArc
 50
335.152448718
 51
335.6268563308
  0
ARC
  5
3F8
100
AcDbEntity
  8
ALL_FEATURES
100
AcDbCircle
 62
7
  6
CONTINUOUS
 10
627.9371091565
 20
500.1090305261
 40
35.6573570262
100
AcDbArc
 50
334.5365606855
 51
337.7511171485
  0
ARC
  5
3F9
100
AcDbEntity
  8
ALL_FEATURES
100
AcDbCircle
 62
7
  6
CONTINUOUS
 10
627.8633226733
 20
499.3886599615
 40
35.4632523743
100
AcDbArc
 50
334.3381464433
 51
335.0456777019
  0
ARC
  5
3FA
100
AcDbEntity
  8
ALL_FEATURES
100
AcDbCircle
 62
7
  6
CONTINUOUS
 10
624.9068490907
 20
502.6692462594
 40
29.7395856296
100
AcDbArc
 50
358.7862199783
 51
359.9939667729
  0
ARC
  5
3FB
100
AcDbEntity
  8
ALL_FEATURES
100
AcDbCircle
 62
7
  6
CONTINUOUS
 10
633.8074102791
 20
514.9066431069
 40
28.4753031101
100
AcDbArc
 50
309.5536735821
 51
309.8493226649
  0
ARC
  5
3FC
100
AcDbEntity
  8
ALL_FEATURES
100
AcDbCircle
 62
7
  6
CONTINUOUS
 10
634.3492101878
 20
514.2574965157
 40
27.629762787
100
AcDbArc
 50
309.8493163688
 51
310.1514519268
  0
ARC
  5
3FD
100
AcDbEntity
  8
ALL_FEATURES
100
AcDbCircle
 62
7
  6
CONTINUOUS
 10
642.6361921078
 20
496.5197455796
 40
10.9592633695
100
AcDbArc
 50
340.8774340826
 51
342.7105613593
  0
ARC
  5
3FE
100
AcDbEntity
  8
ALL_FEATURES
100
AcDbCircle
 62
7
  6
CONTINUOUS
 10
642.7243337598
 20
496.4896407304
 40
10.8661233367
100
AcDbArc
 50
340.5329183053
 51
340.8751632378
  0
ARC
  5
3FF
100
AcDbEntity
  8
ALL_FEATURES
100
AcDbCircle
 62
7
  6
CONTINUOUS
 10
662.2198677051
 20
503.1487485641
 40
2.4488227125
100
AcDbArc
 50
16.5492237332
 51
21.6379316373
  0
ARC
  5
400
100
AcDbEntity
  8
ALL_FEATURES
100
AcDbCircle
 62
7
  6
CONTINUOUS
 10
662.4807296959
 20
504.3910235514
 40
2.1824469614
100
AcDbArc
 50
359.9893455649
 51
1.4335652483
  0
CIRCLE
  5
401
100
AcDbEntity
  8
0
100
AcDbCircle
 62
7
  6
CONTINUOUS
 10
627.5316087578
 20
565.921130343
 40
4.48
  0
ARC
  5
402
100
AcDbEntity
  8
ALL_FEATURES
100
AcDbCircle
 62
3
  6
CONTINUOUS
 10
714.0637884523
 20
722.0561648625
 40
3.0
100
AcDbArc
 50
131.8496191413
 51
180.0
  0
ARC
  5
403
100
AcDbEntity
  8
ALL_FEATURES
100
AcDbCircle
 62
7
  6
CONTINUOUS
 10
732.2608842469
 20
657.7679527413
 40
0.5
100
AcDbArc
 50
212.987826409
 51
291.5033145907
  0
ARC
  5
404
100
AcDbEntity
  8
ALL_FEATURES
100
AcDbCircle
 62
7
  6
CONTINUOUS
 10
732.6753888756
 20
657.9316859765
 40
0.5
100
AcDbArc
 50
291.6056595673
 51
313.6037728153
  0
ARC
  5
405
100
AcDbEntity
  8
ALL_FEATURES
100
AcDbCircle
 62
7
  6
CONTINUOUS
 10
640.8053989648
 20
889.9018455958
 40
250.0
100
AcDbArc
 50
310.4971733986
 51
338.4723382301
  0
ARC
  5
406
100
AcDbEntity
  8
ALL_FEATURES
100
AcDbCircle
 62
7
  6
CONTINUOUS
 10
640.8053989648
 20
889.9018455958
 40
250.0
100
AcDbArc
 50
291.5033145894
 51
291.6056595673
  0
ARC
  5
407
100
AcDbEntity
  8
ALL_FEATURES
100
AcDbCircle
 62
7
  6
CONTINUOUS
 10
760.3104993425
 20
814.6280332538
 40
88.9215121808
100
AcDbArc
 50
315.1550081281
 51
315.4566508348
  0
ARC
  5
408
100
AcDbEntity
  8
ALL_FEATURES
100
AcDbCircle
 62
7
  6
CONTINUOUS
 10
759.4223718045
 20
812.1903304921
 40
85.5954434894
100
AcDbArc
 50
309.8522064179
 51
310.3782548468
  0
ARC
  5
409
100
AcDbEntity
  8
ALL_FEATURES
100
AcDbCircle
 62
7
  6
CONTINUOUS
 10
759.8683586178
 20
811.6569401079
 40
84.9001671433
100
AcDbArc
 50
309.6162399402
 51
309.851813349
  0
ARC
  5
40A
100
AcDbEntity
  8
ALL_FEATURES
100
AcDbCircle
 62
7
  6
CONTINUOUS
 10
762.515380988
 20
808.3506470219
 40
80.6653980392
100
AcDbArc
 50
303.5025987334
 51
309.6653529485
  0
ARC
  5
40B
100
AcDbEntity
  8
ALL_FEATURES
100
AcDbCircle
 62
7
  6
CONTINUOUS
 10
767.485113686
 20
808.8113995393
 40
80.2553112243
100
AcDbArc
 50
270.1120363127
 51
270.5701664116
  0
ARC
  5
40C
100
AcDbEntity
  8
ALL_FEATURES
100
AcDbCircle
 62
7
  6
CONTINUOUS
 10
766.9802367717
 20
808.738868662
 40
80.2520131775
100
AcDbArc
 50
290.2071396916
 51
291.7092635043
  0
ARC
  5
40D
100
AcDbEntity
  8
ALL_FEATURES
100
AcDbCircle
 62
7
  6
CONTINUOUS
 10
766.9804502357
 20
808.7380990661
 40
80.2512172166
100
AcDbArc
 50
289.9558322449
 51
290.2071864592
  0
ARC
  5
40E
100
AcDbEntity
  8
ALL_FEATURES
100
AcDbCircle
 62
7
  6
CONTINUOUS
 10
761.9933654306
 20
807.5827993317
 40
80.0918250071
100
AcDbArc
 50
304.1144082528
 51
310.5516797347
  0
ARC
  5
40F
100
AcDbEntity
  8
ALL_FEATURES
100
AcDbCircle
 62
7
  6
CONTINUOUS
 10
767.0009939978
 20
808.4280473455
 40
79.9609787724
100
AcDbArc
 50
297.3572529904
 51
315.326420984
  0
ARC
  5
410
100
AcDbEntity
  8
ALL_FEATURES
100
AcDbCircle
 62
7
  6
CONTINUOUS
 10
767.5334048949
 20
808.2902627739
 40
79.7340982627
100
AcDbArc
 50
270.0053784798
 51
289.9458211058
  0
ARC
  5
411
100
AcDbEntity
  8
ALL_FEATURES
100
AcDbCircle
 62
7
  6
CONTINUOUS
 10
767.4903884033
 20
808.2741644675
 40
79.7180502636
100
AcDbArc
 50
270.5702178963
 51
271.0012158523
  0
ARC
  5
412
100
AcDbEntity
  8
ALL_FEATURES
100
AcDbCircle
 62
7
  6
CONTINUOUS
 10
767.1769500001
 20
808.1538611574
 40
79.635856717
100
AcDbArc
 50
291.7334604194
 51
297.2908245279
  0
ARC
  5
413
100
AcDbEntity
  8
ALL_FEATURES
100
AcDbCircle
 62
7
  6
CONTINUOUS
 10
766.966860814
 20
808.0239607172
 40
79.539362302
100
AcDbArc
 50
291.9075529558
 51
297.4689972557
  0
ARC
  5
414
100
AcDbEntity
  8
ALL_FEATURES
100
AcDbCircle
 62
7
  6
CONTINUOUS
 10
767.0937258248
 20
807.8824980033
 40
79.3553167178
100
AcDbArc
 50
297.4796332146
 51
315.1544437502
  0
ARC
  5
415
100
AcDbEntity
  8
ALL_FEATURES
100
AcDbCircle
 62
7
  6
CONTINUOUS
 10
767.4678147352
 20
807.9113566354
 40
79.3552197804
100
AcDbArc
 50
270.2807993698
 51
270.5381172677
  0
ARC
  5
416
100
AcDbEntity
  8
ALL_FEATURES
100
AcDbCircle
 62
7
  6
CONTINUOUS
 10
763.5386206381
 20
806.7560100083
 40
78.8857703116
100
AcDbArc
 50
302.1071663815
 51
310.9826879887
  0
ARC
  5
417
100
AcDbEntity
  8
ALL_FEATURES
100
AcDbCircle
 62
7
  6
CONTINUOUS
 10
767.4181203002
 20
807.3771302885
 40
78.8226094487
100
AcDbArc
 50
271.1591345298
 51
289.994431936
  0
ARC
  5
418
100
AcDbEntity
  8
ALL_FEATURES
100
AcDbCircle
 62
7
  6
CONTINUOUS
 10
767.2551042125
 20
807.3548513662
 40
78.8110267775
100
AcDbArc
 50
290.3663790701
 51
291.8946290037
  0
ARC
  5
419
100
AcDbEntity
  8
ALL_FEATURES
100
AcDbCircle
 62
7
  6
CONTINUOUS
 10
767.3982578342
 20
806.733447074
 40
78.1786911799
100
AcDbArc
 50
270.741417951
 51
290.426517785
  0
ARC
  5
41A
100
AcDbEntity
  8
ALL_FEATURES
100
AcDbCircle
 62
7
  6
CONTINUOUS
 10
764.0753366416
 20
804.6852984077
 40
76.5253238401
100
AcDbArc
 50
303.8614819512
 51
304.0405481742
  0
ARC
  5
41B
100
AcDbEntity
  8
ALL_FEATURES
100
AcDbCircle
 62
7
  6
CONTINUOUS
 10
764.4136623611
 20
804.1773868098
 40
75.9150499636
100
AcDbArc
 50
302.5776196101
 51
303.8630370379
  0
ARC
  5
41C
100
AcDbEntity
  8
ALL_FEATURES
100
AcDbCircle
 62
7
  6
CONTINUOUS
 10
767.1648387225
 20
801.348908869
 40
72.2605406484
100
AcDbArc
 50
301.987541298
 51
303.4929114719
  0
ARC
  5
41D
100
AcDbEntity
  8
ALL_FEATURES
100
AcDbCircle
 62
7
  6
CONTINUOUS
 10
913.098776126
 20
686.1918728739
 40
120.7485917824
100
AcDbArc
 50
110.0709913648
 51
110.2685007767
  0
ARC
  5
41E
100
AcDbEntity
  8
ALL_FEATURES
100
AcDbCircle
 62
7
  6
CONTINUOUS
 10
912.9695044343
 20
686.5413251994
 40
120.3759954138
100
AcDbArc
 50
110.2684008892
 51
110.6653748509
  0
ARC
  5
41F
100
AcDbEntity
  8
ALL_FEATURES
100
AcDbCircle
 62
7
  6
CONTINUOUS
 10
795.7968173752
 20
752.787509909
 40
17.3099478955
100
AcDbArc
 50
297.1308324681
 51
297.3347297681
  0
ARC
  5
420
100
AcDbEntity
  8
ALL_FEATURES
100
AcDbCircle
 62
7
  6
CONTINUOUS
 10
816.5634653556
 20
755.0535528034
 40
2.4996769067
100
AcDbArc
 50
136.3390129889
 51
180.0029664583
  0
ARC
  5
421
100
AcDbEntity
  8
ALL_FEATURES
100
AcDbCircle
 62
7
  6
CONTINUOUS
 10
816.2709896326
 20
745.3398505749
 40
2.4555705619
100
AcDbArc
 50
120.7186678295
 51
125.7453384167
  0
ARC
  5
422
100
AcDbEntity
  8
ALL_FEATURES
100
AcDbCircle
 62
7
  6
CONTINUOUS
 10
816.1730263908
 20
745.4758911926
 40
2.2879285476
100
AcDbArc
 50
125.7444275604
 51
130.9860366738
  0
ARC
  5
423
100
AcDbEntity
  8
ALL_FEATURES
100
AcDbCircle
 62
7
  6
CONTINUOUS
 10
802.8333272105
 20
700.1725635427
 40
0.5
100
AcDbArc
 50
289.5037108391
 51
310.4971733986
  0
ARC
  5
424
100
AcDbEntity
  8
ALL_FEATURES
100
AcDbCircle
 62
7
  6
CONTINUOUS
 10
845.7298891647
 20
783.4287261551
 40
2.4999999999
100
AcDbArc
 50
124.0479949872
 51
129.9552016089
  0
ARC
  5
425
100
AcDbEntity
  8
ALL_FEATURES
100
AcDbCircle
 62
7
  6
CONTINUOUS
 10
872.9004079085
 20
798.3477259539
 40
0.5
100
AcDbArc
 50
338.4723382287
 51
56.9878264105
  0
ARC
  5
426
100
AcDbEntity
  8
ALL_FEATURES
100
AcDbCircle
 62
7
  6
CONTINUOUS
 10
871.7627238013
 20
799.3253959366
 40
0.3
100
AcDbArc
 50
56.9878264097
 51
110.0710256603
  0
ARC
  5
427
100
AcDbEntity
  8
ALL_FEATURES
100
AcDbCircle
 62
7
  6
CONTINUOUS
 10
6141.4409656219
 20
-4474.2128773995
 40
7456.1734059869
100
AcDbArc
 50
135.0883119519
 51
135.388632194
  0
SPLINE
  5
428
100
AcDbEntity
  8
ALL_FEATURES
100
AcDbSpline
 62
7
  6
CONTINUOUS
 70
0
 71
3
 72
9
 73
5
 74
0
 42
0.0000001
 43
0.0000001
 44
0.0000000001
 40
0.0
 40
0.0
 40
0.0
 40
0.0
 40
0.2666178636
 40
1.0
 40
1.0
 40
1.0
 40
1.0
 10
661.797731985
 20
751.899044319
 30
0.0
 10
662.1013634108
 20
751.270294242
 30
0.0
 10
663.2024359963
 20
748.8944334816
 30
0.0
 10
664.1490938654
 20
746.4438033182
 30
0.0
 10
664.7136915735
 20
744.6080663079
 30
0.0
  0
SPLINE
  5
429
100
AcDbEntity
  8
ALL_FEATURES
100
AcDbSpline
 62
7
  6
CONTINUOUS
 70
0
 71
3
 72
9
 73
5
 74
0
 42
0.0000001
 43
0.0000001
 44
0.0000000001
 40
0.0
 40
0.0
 40
0.0
 40
0.0
 40
0.2524018151
 40
1.0
 40
1.0
 40
1.0
 40
1.0
 10
567.5316087577
 20
657.2679527413
 30
0.0
 10
570.3414224032
 20
657.2679527413
 30
0.0
 10
581.4705317906
 20
657.60023449
 30
0.0
 10
592.5657704355
 20
659.2565636063
 30
0.0
 10
600.6423086721
 20
661.2648887368
 30
0.0
  0
LINE
  5
42A
100
AcDbEntity
  8
ALL_FEATURES
100
AcDbLine
 62
7
  6
CONTINUOUS
 10
600.6423086721
 20
661.2648887368
 11
600.7270455048
 21
661.2859898064
  0
SPLINE
  5
42B
100
AcDbEntity
  8
ALL_FEATURES
100
AcDbSpline
 62
7
  6
CONTINUOUS
 70
0
 71
3
 72
14
 73
10
 74
0
 42
0.0000001
 43
0.0000001
 44
0.0000000001
 40
0.0
 40
0.0
 40
0.0
 40
0.0
 40
0.2885124581
 40
0.422341643
 40
0.5481245208
 40
0.6665066407
 40
0.7792958823
 40
0.8893242419
 40
1.0
 40
1.0
 40
1.0
 40
1.0
 10
600.7270455048
 20
661.2859898064
 30
0.0
 10
611.6039913861
 20
663.9984413595
 30
0.0
 10
627.1891819425
 20
670.0734056101
 30
0.0
 10
644.6435205149
 20
682.4227218747
 30
0.0
 10
654.9762171404
 20
692.9928742551
 30
0.0
 10
662.4914819832
 20
704.7810733523
 30
0.0
 10
666.8895168031
 20
717.4290065683
 30
0.0
 10
667.9598456897
 20
730.4812959909
 30
0.0
 10
666.429645568
 20
739.0287910028
 30
0.0
 10
665.1654992263
 20
743.1390530278
 30
0.0
  0
SPLINE
  5
42C
100
AcDbEntity
  8
ALL_FEATURES
100
AcDbSpline
 62
7
  6
CONTINUOUS
 70
0
 71
3
 72
9
 73
5
 74
0
 42
0.0000001
 43
0.0000001
 44
0.0000000001
 40
0.0
 40
0.0
 40
0.0
 40
0.0
 40
0.2331097577
 40
1.0
 40
1.0
 40
1.0
 40
1.0
 10
470.3495262714
 20
744.6080665954
 30
0.0
 10
470.5289945207
 20
745.1915901084
 30
0.0
 10
471.3562300412
 20
747.6771235249
 30
0.0
 10
472.3920949603
 20
750.0904554804
 30
0.0
 10
473.2654855305
 20
751.899044319
 30
0.0
  0
SPLINE
  5
42D
100
AcDbEntity
  8
ALL_FEATURES
100
AcDbSpline
 62
7
  6
CONTINUOUS
 70
0
 71
3
 72
14
 73
10
 74
0
 42
0.0000001
 43
0.0000001
 44
0.0000000001
 40
0.0
 40
0.0
 40
0.0
 40
0.0
 40
0.1105921454
 40
0.220547518
 40
0.3332945334
 40
0.4516755582
 40
0.5774955233
 40
0.7113858284
 40
1.0
 40
1.0
 40
1.0
 40
1.0
 10
469.8977182893
 20
743.1390530278
 30
0.0
 10
468.6291157161
 20
739.0143019535
 30
0.0
 10
467.0970424865
 20
730.4348225301
 30
0.0
 10
468.1897167636
 20
717.3349623987
 30
0.0
 10
472.6335387952
 20
704.6462867471
 30
0.0
 10
480.2141908907
 20
692.8285654796
 30
0.0
 10
490.6273844021
 20
682.2429387056
 30
0.0
 10
508.2047349018
 20
669.8952887475
 30
0.0
 10
523.885479686
 20
663.8483094028
 30
0.0
 10
534.8233156483
 20
661.1655070485
 30
0.0
  0
LINE
  5
42E
100
AcDbEntity
  8
ALL_FEATURES
100
AcDbLine
 62
7
  6
CONTINUOUS
 10
534.8233156483
 20
661.1655070485
 11
534.9052058847
 21
661.1454493652
  0
SPLINE
  5
42F
100
AcDbEntity
  8
ALL_FEATURES
100
AcDbSpline
 62
7
  6
CONTINUOUS
 70
0
 71
3
 72
9
 73
5
 74
0
 42
0.0000001
 43
0.0000001
 44
0.0000000001
 40
0.0
 40
0.0
 40
0.0
 40
0.0
 40
0.247234447
 40
1.0
 40
1.0
 40
1.0
 40
1.0
 10
534.9052058847
 20
661.1454493652
 30
0.0
 10
537.5389405819
 20
660.501263235
 30
0.0
 10
548.2710419264
 20
658.2288866427
 30
0.0
 10
559.2761778212
 20
657.2679527413
 30
0.0
 10
567.5316087577
 20
657.2679527413
 30
0.0
  0
SPLINE
  5
430
100
AcDbEntity
  8
0
100
AcDbSpline
 62
7
  6
CONTINUOUS
 70
0
 71
3
 72
12
 73
8
 74
0
 42
0.0000001
 43
0.0000001
 44
0.0000000001
 40
0.0
 40
0.0
 40
0.0
 40
0.0
 40
0.1081912933
 40
0.2184122348
 40
0.4514105384
 40
0.7104134538
 40
1.0
 40
1.0
 40
1.0
 40
1.0
 10
491.119451986
 20
479.5886149139
 30
0.0
 10
491.119451986
 20
479.5366042836
 30
0.0
 10
491.1284417922
 20
479.4313921604
 30
0.0
 10
491.1827687246
 20
479.2204128648
 30
0.0
 10
491.3222865435
 20
478.9614979954
 30
0.0
 10
491.5823724685
 20
478.6860525223
 30
0.0
 10
491.8002479189
 20
478.5343488843
 30
0.0
 10
491.9204198564
 20
478.4640721359
 30
0.0
  0
SPLINE
  5
431
100
AcDbEntity
  8
0
100
AcDbSpline
 62
7
  6
CONTINUOUS
 70
0
 71
3
 72
16
 73
12
 74
0
 42
0.0000001
 43
0.0000001
 44
0.0000000001
 40
0.0
 40
0.0
 40
0.0
 40
0.0
 40
0.1554470433
 40
0.306917043
 40
0.4507682769
 40
0.5840047646
 40
0.7047040942
 40
0.8125328524
 40
0.9093623836
 40
0.9551125971
 40
1.0
 40
1.0
 40
1.0
 40
1.0
 10
493.9194494361
 20
481.4813321512
 30
0.0
 10
493.7370705408
 20
481.4813321512
 30
0.0
 10
493.3766368916
 20
481.4612397925
 30
0.0
 10
492.8542390031
 20
481.3715684657
 30
0.0
 10
492.3715219479
 20
481.2257928451
 30
0.0
 10
491.9463063852
 20
481.0291597489
 30
0.0
 10
491.5939927486
 20
480.7881228747
 30
0.0
 10
491.3275445877
 20
480.5102205701
 30
0.0
 10
491.1844113671
 20
480.2482343084
 30
0.0
 10
491.1286733402
 20
480.0345460372
 30
0.0
 10
491.119451986
 20
479.9279824631
 30
0.0
 10
491.119451986
 20
479.8753181294
 30
0.0
  0
SPLINE
  5
432
100
AcDbEntity
  8
0
100
AcDbSpline
 62
7
  6
CONTINUOUS
 70
0
 71
3
 72
16
 73
12
 74
0
 42
0.0000001
 43
0.0000001
 44
0.0000000001
 40
0.0
 40
0.0
 40
0.0
 40
0.0
 40
0.1554470433
 40
0.306917043
 40
0.4507682769
 40
0.5840047646
 40
0.7047040942
 40
0.8125328524
 40
0.9093623836
 40
0.9551125971
 40
1.0
 40
1.0
 40
1.0
 40
1.0
 10
493.9194494361
 20
481.4813321512
 30
0.0
 10
494.1018283313
 20
481.4813321512
 30
0.0
 10
494.4622619806
 20
481.4612397925
 30
0.0
 10
494.984659869
 20
481.3715684657
 30
0.0
 10
495.4673769243
 20
481.2257928451
 30
0.0
 10
495.8925924869
 20
481.0291597489
 30
0.0
 10
496.2449061235
 20
480.7881228747
 30
0.0
 10
496.5113542844
 20
480.5102205701
 30
0.0
 10
496.6544875051
 20
480.2482343084
 30
0.0
 10
496.710225532
 20
480.0345460372
 30
0.0
 10
496.7194468861
 20
479.9279824631
 30
0.0
 10
496.7194468861
 20
479.8753181294
 30
0.0
  0
SPLINE
  5
433
100
AcDbEntity
  8
0
100
AcDbSpline
 62
7
  6
CONTINUOUS
 70
0
 71
3
 72
9
 73
5
 74
0
 42
0.0000001
 43
0.0000001
 44
0.0000000001
 40
0.0
 40
0.0
 40
0.0
 40
0.0
 40
0.4896045055
 40
1.0
 40
1.0
 40
1.0
 40
1.0
 10
496.7194468861
 20
479.5886149139
 30
0.0
 10
496.7194468861
 20
479.509031577
 30
0.0
 10
496.6979301483
 20
479.3458466969
 30
0.0
 10
496.6366607838
 20
479.1934844953
 30
0.0
 10
496.5977212716
 20
479.1202277826
 30
0.0
  0
SPLINE
  5
434
100
AcDbEntity
  8
0
100
AcDbSpline
 62
7
  6
CONTINUOUS
 70
0
 71
3
 72
9
 73
5
 74
0
 42
0.0000001
 43
0.0000001
 44
0.0000000001
 40
0.0
 40
0.0
 40
0.0
 40
0.0
 40
0.2363485954
 40
1.0
 40
1.0
 40
1.0
 40
1.0
 10
496.5977212716
 20
479.1202277826
 30
0.0
 10
496.578815216
 20
479.0846599133
 30
0.0
 10
496.4910594662
 20
478.9383002466
 30
0.0
 10
496.3749866888
 20
478.8100191597
 30
0.0
 10
496.2780854766
 20
478.7231367696
 30
0.0
  0
SPLINE
  5
435
100
AcDbEntity
  8
0
100
AcDbSpline
 62
7
  6
CONTINUOUS
 70
0
 71
3
 72
12
 73
8
 74
0
 42
0.0000001
 43
0.0000001
 44
0.0000000001
 40
0.0
 40
0.0
 40
0.0
 40
0.0
 40
0.1062377249
 40
0.2148164288
 40
0.4462900202
 40
0.7067166161
 40
1.0
 40
1.0
 40
1.0
 40
1.0
 10
491.119451986
 20
479.8753181294
 30
0.0
 10
491.119451986
 20
479.8188181177
 30
0.0
 10
491.1300966358
 20
479.7043017841
 30
0.0
 10
491.1944895223
 20
479.4747060448
 30
0.0
 10
491.3598947748
 20
479.1948675008
 30
0.0
 10
491.6642814802
 20
478.9037196092
 30
0.0
 10
491.9165925316
 20
478.747957691
 30
0.0
 10
492.0554442469
 20
478.676903819
 30
0.0
  0
SPLINE
  5
436
100
AcDbEntity
  8
0
100
AcDbSpline
 62
7
  6
CONTINUOUS
 70
0
 71
3
 72
9
 73
5
 74
0
 42
0.0000001
 43
0.0000001
 44
0.0000000001
 40
0.0
 40
0.0
 40
0.0
 40
0.0
 40
0.242264973
 40
1.0
 40
1.0
 40
1.0
 40
1.0
 10
492.574933443
 20
478.4665757261
 30
0.0
 10
492.6505568781
 20
478.4428314288
 30
0.0
 10
492.9657401423
 20
478.3546127904
 30
0.0
 10
493.2910360828
 20
478.3037426502
 30
0.0
 10
493.5381828186
 20
478.2842626089
 30
0.0
  0
LINE
  5
437
100
AcDbEntity
  8
0
100
AcDbLine
 62
7
  6
CONTINUOUS
 10
493.9151095245
 20
478.2693060426
 11
493.9194494361
 21
478.2693041076
  0
SPLINE
  5
438
100
AcDbEntity
  8
0
100
AcDbSpline
 62
7
  6
CONTINUOUS
 70
0
 71
3
 72
10
 73
6
 74
0
 42
0.0000001
 43
0.0000001
 44
0.0000000001
 40
0.0
 40
0.0
 40
0.0
 40
0.0
 40
0.2351159551
 40
0.4768583315
 40
1.0
 40
1.0
 40
1.0
 40
1.0
 10
496.7194468861
 20
479.8753181294
 30
0.0
 10
496.7194468861
 20
479.8111420544
 30
0.0
 10
496.7056159685
 20
479.6805678812
 30
0.0
 10
496.6219620868
 20
479.4192238739
 30
0.0
 10
496.5012500644
 20
479.2424069367
 30
0.0
 10
496.4055280476
 20
479.1364472278
 30
0.0
  0
SPLINE
  5
439
100
AcDbEntity
  8
0
100
AcDbSpline
 62
7
  6
CONTINUOUS
 70
0
 71
3
 72
9
 73
5
 74
0
 42
0.0000001
 43
0.0000001
 44
0.0000000001
 40
0.0
 40
0.0
 40
0.0
 40
0.0
 40
0.2450736114
 40
1.0
 40
1.0
 40
1.0
 40
1.0
 10
496.4055280476
 20
479.1364472278
 30
0.0
 10
496.3956845086
 20
479.1255508995
 30
0.0
 10
496.3548984907
 20
479.0816521712
 30
0.0
 10
496.3117173308
 20
479.0399924771
 30
0.0
 10
496.2780379299
 20
479.0097973559
 30
0.0
  0
SPLINE
  5
43A
100
AcDbEntity
  8
0
100
AcDbSpline
 62
7
  6
CONTINUOUS
 70
0
 71
3
 72
9
 73
5
 74
0
 42
0.0000001
 43
0.0000001
 44
0.0000000001
 40
0.0
 40
0.0
 40
0.0
 40
0.0
 40
0.2387784311
 40
1.0
 40
1.0
 40
1.0
 40
1.0
 10
496.2069651365
 20
478.949161446
 30
0.0
 10
496.175832403
 20
478.9238638404
 30
0.0
 10
496.0422686001
 20
478.8218462138
 30
0.0
 10
495.8973004662
 20
478.7351615639
 30
0.0
 10
495.7834546253
 20
478.676903819
 30
0.0
  0
SPLINE
  5
43B
100
AcDbEntity
  8
0
100
AcDbSpline
 62
7
  6
CONTINUOUS
 70
0
 71
3
 72
9
 73
5
 74
0
 42
0.0000001
 43
0.0000001
 44
0.0000000001
 40
0.0
 40
0.0
 40
0.0
 40
0.0
 40
0.2412556201
 40
1.0
 40
1.0
 40
1.0
 40
1.0
 10
495.7834546253
 20
478.676903819
 30
0.0
 10
495.7433047822
 20
478.6563581469
 30
0.0
 10
495.5748880245
 20
478.5751197659
 30
0.0
 10
495.3992945553
 20
478.5090664566
 30
0.0
 10
495.2639654291
 20
478.4665757261
 30
0.0
  0
SPLINE
  5
43C
100
AcDbEntity
  8
0
100
AcDbSpline
 62
7
  6
CONTINUOUS
 70
0
 71
3
 72
9
 73
5
 74
0
 42
0.0000001
 43
0.0000001
 44
0.0000000001
 40
0.0
 40
0.0
 40
0.0
 40
0.0
 40
0.242264973
 40
1.0
 40
1.0
 40
1.0
 40
1.0
 10
495.2639654291
 20
478.4665757261
 30
0.0
 10
495.1883419941
 20
478.4428314288
 30
0.0
 10
494.8731587299
 20
478.3546127904
 30
0.0
 10
494.5478627893
 20
478.3037426502
 30
0.0
 10
494.3007160535
 20
478.2842626089
 30
0.0
  0
LINE
  5
43D
100
AcDbEntity
  8
0
100
AcDbLine
 62
7
  6
CONTINUOUS
 10
493.9237893476
 20
478.2693060426
 11
493.9194494361
 21
478.2693041076
  0
SPLINE
  5
43E
100
AcDbEntity
  8
0
100
AcDbSpline
 62
7
  6
CONTINUOUS
 70
0
 71
3
 72
9
 73
5
 74
0
 42
0.0000001
 43
0.0000001
 44
0.0000000001
 40
0.0
 40
0.0
 40
0.0
 40
0.0
 40
0.2396884711
 40
1.0
 40
1.0
 40
1.0
 40
1.0
 10
491.9204198564
 20
478.4640721359
 30
0.0
 10
491.961693203
 20
478.4399354143
 30
0.0
 10
492.1366510319
 20
478.3439806221
 30
0.0
 10
492.3214093761
 20
478.2663554439
 30
0.0
 10
492.464614376
 20
478.2164053697
 30
0.0
  0
SPLINE
  5
43F
100
AcDbEntity
  8
0
100
AcDbSpline
 62
7
  6
CONTINUOUS
 70
0
 71
3
 72
9
 73
5
 74
0
 42
0.0000001
 43
0.0000001
 44
0.0000000001
 40
0.0
 40
0.0
 40
0.0
 40
0.0
 40
0.4874888151
 40
1.0
 40
1.0
 40
1.0
 40
1.0
 10
492.464614376
 20
478.2164053697
 30
0.0
 10
492.6882152563
 20
478.1384131167
 30
0.0
 10
493.1628736973
 20
478.0226622498
 30
0.0
 10
493.649198135
 20
477.9837359167
 30
0.0
 10
493.8981635985
 20
477.9826474298
 30
0.0
  0
SPLINE
  5
440
100
AcDbEntity
  8
0
100
AcDbSpline
 62
7
  6
CONTINUOUS
 70
0
 71
3
 72
9
 73
5
 74
0
 42
0.0000001
 43
0.0000001
 44
0.0000000001
 40
0.0
 40
0.0
 40
0.0
 40
0.0
 40
0.4896045055
 40
1.0
 40
1.0
 40
1.0
 40
1.0
 10
638.3437706294
 20
479.5886149139
 30
0.0
 10
638.3437706294
 20
479.509031577
 30
0.0
 10
638.3652873672
 20
479.3458466969
 30
0.0
 10
638.4265567317
 20
479.1934844953
 30
0.0
 10
638.4654962439
 20
479.1202277826
 30
0.0
  0
SPLINE
  5
441
100
AcDbEntity
  8
0
100
AcDbSpline
 62
7
  6
CONTINUOUS
 70
0
 71
3
 72
9
 73
5
 74
0
 42
0.0000001
 43
0.0000001
 44
0.0000000001
 40
0.0
 40
0.0
 40
0.0
 40
0.0
 40
0.2363485954
 40
1.0
 40
1.0
 40
1.0
 40
1.0
 10
638.4654962439
 20
479.1202277826
 30
0.0
 10
638.4844022995
 20
479.0846599133
 30
0.0
 10
638.5721580493
 20
478.9383002466
 30
0.0
 10
638.6882308267
 20
478.8100191597
 30
0.0
 10
638.7851320389
 20
478.7231367696
 30
0.0
  0
SPLINE
  5
442
100
AcDbEntity
  8
0
100
AcDbSpline
 62
7
  6
CONTINUOUS
 70
0
 71
3
 72
16
 73
12
 74
0
 42
0.0000001
 43
0.0000001
 44
0.0000000001
 40
0.0
 40
0.0
 40
0.0
 40
0.0
 40
0.1554470433
 40
0.306917043
 40
0.4507682769
 40
0.5840047646
 40
0.7047040942
 40
0.8125328524
 40
0.9093623836
 40
0.9551125971
 40
1.0
 40
1.0
 40
1.0
 40
1.0
 10
641.1437680794
 20
481.4813321512
 30
0.0
 10
640.9613891842
 20
481.4813321512
 30
0.0
 10
640.6009555349
 20
481.4612397925
 30
0.0
 10
640.0785576465
 20
481.3715684657
 30
0.0
 10
639.5958405912
 20
481.2257928451
 30
0.0
 10
639.1706250286
 20
481.0291597489
 30
0.0
 10
638.818311392
 20
480.7881228747
 30
0.0
 10
638.5518632311
 20
480.5102205701
 30
0.0
 10
638.4087300104
 20
480.2482343084
 30
0.0
 10
638.3529919835
 20
480.0345460372
 30
0.0
 10
638.3437706294
 20
479.9279824631
 30
0.0
 10
638.3437706294
 20
479.8753181294
 30
0.0
  0
SPLINE
  5
443
100
AcDbEntity
  8
0
100
AcDbSpline
 62
7
  6
CONTINUOUS
 70
0
 71
3
 72
16
 73
12
 74
0
 42
0.0000001
 43
0.0000001
 44
0.0000000001
 40
0.0
 40
0.0
 40
0.0
 40
0.0
 40
0.1554470433
 40
0.306917043
 40
0.4507682769
 40
0.5840047646
 40
0.7047040942
 40
0.8125328524
 40
0.9093623836
 40
0.9551125971
 40
1.0
 40
1.0
 40
1.0
 40
1.0
 10
641.1437680794
 20
481.4813321512
 30
0.0
 10
641.3261469747
 20
481.4813321512
 30
0.0
 10
641.6865806239
 20
481.4612397925
 30
0.0
 10
642.2089785124
 20
481.3715684657
 30
0.0
 10
642.6916955677
 20
481.2257928451
 30
0.0
 10
643.1169111303
 20
481.0291597489
 30
0.0
 10
643.4692247669
 20
480.7881228747
 30
0.0
 10
643.7356729278
 20
480.5102205701
 30
0.0
 10
643.8788061484
 20
480.2482343084
 30
0.0
 10
643.9345441753
 20
480.0345460372
 30
0.0
 10
643.9437655295
 20
479.9279824631
 30
0.0
 10
643.9437655295
 20
479.8753181294
 30
0.0
  0
SPLINE
  5
444
100
AcDbEntity
  8
0
100
AcDbSpline
 62
7
  6
CONTINUOUS
 70
0
 71
3
 72
12
 73
8
 74
0
 42
0.0000001
 43
0.0000001
 44
0.0000000001
 40
0.0
 40
0.0
 40
0.0
 40
0.0
 40
0.1081912933
 40
0.2184122348
 40
0.4514105384
 40
0.7104134538
 40
1.0
 40
1.0
 40
1.0
 40
1.0
 10
643.9437655295
 20
479.5886149139
 30
0.0
 10
643.9437655295
 20
479.5366042836
 30
0.0
 10
643.9347757233
 20
479.4313921604
 30
0.0
 10
643.8804487909
 20
479.2204128648
 30
0.0
 10
643.740930972
 20
478.9614979954
 30
0.0
 10
643.480845047
 20
478.6860525224
 30
0.0
 10
643.2629695966
 20
478.5343488843
 30
0.0
 10
643.1427976591
 20
478.4640721359
 30
0.0
  0
SPLINE
  5
445
100
AcDbEntity
  8
0
100
AcDbSpline
 62
7
  6
CONTINUOUS
 70
0
 71
3
 72
10
 73
6
 74
0
 42
0.0000001
 43
0.0000001
 44
0.0000000001
 40
0.0
 40
0.0
 40
0.0
 40
0.0
 40
0.2351159551
 40
0.4768583315
 40
1.0
 40
1.0
 40
1.0
 40
1.0
 10
638.3437706294
 20
479.8753181294
 30
0.0
 10
638.3437706294
 20
479.8111420544
 30
0.0
 10
638.357601547
 20
479.6805678812
 30
0.0
 10
638.4412554287
 20
479.4192238739
 30
0.0
 10
638.5619674511
 20
479.2424069367
 30
0.0
 10
638.6576894679
 20
479.1364472278
 30
0.0
  0
SPLINE
  5
446
100
AcDbEntity
  8
0
100
AcDbSpline
 62
7
  6
CONTINUOUS
 70
0
 71
3
 72
9
 73
5
 74
0
 42
0.0000001
 43
0.0000001
 44
0.0000000001
 40
0.0
 40
0.0
 40
0.0
 40
0.0
 40
0.2450736114
 40
1.0
 40
1.0
 40
1.0
 40
1.0
 10
638.6576894679
 20
479.1364472278
 30
0.0
 10
638.6675330069
 20
479.1255508995
 30
0.0
 10
638.7083190248
 20
479.0816521712
 30
0.0
 10
638.7515001847
 20
479.0399924771
 30
0.0
 10
638.7851795856
 20
479.0097973559
 30
0.0
  0
SPLINE
  5
447
100
AcDbEntity
  8
0
100
AcDbSpline
 62
7
  6
CONTINUOUS
 70
0
 71
3
 72
9
 73
5
 74
0
 42
0.0000001
 43
0.0000001
 44
0.0000000001
 40
0.0
 40
0.0
 40
0.0
 40
0.0
 40
0.2363662924
 40
1.0
 40
1.0
 40
1.0
 40
1.0
 10
638.7851795856
 20
479.0097973559
 30
0.0
 10
638.820209939
 20
478.9783910441
 30
0.0
 10
638.9734780583
 20
478.8511830089
 30
0.0
 10
639.1444523687
 20
478.7461455742
 30
0.0
 10
639.2797628902
 20
478.676903819
 30
0.0
  0
SPLINE
  5
448
100
AcDbEntity
  8
0
100
AcDbSpline
 62
7
  6
CONTINUOUS
 70
0
 71
3
 72
9
 73
5
 74
0
 42
0.0000001
 43
0.0000001
 44
0.0000000001
 40
0.0
 40
0.0
 40
0.0
 40
0.0
 40
0.2412556201
 40
1.0
 40
1.0
 40
1.0
 40
1.0
 10
639.2797628902
 20
478.676903819
 30
0.0
 10
639.3199127333
 20
478.6563581469
 30
0.0
 10
639.488329491
 20
478.5751197659
 30
0.0
 10
639.6639229602
 20
478.5090664566
 30
0.0
 10
639.7992520864
 20
478.4665757261
 30
0.0
  0
SPLINE
  5
449
100
AcDbEntity
  8
0
100
AcDbSpline
 62
7
  6
CONTINUOUS
 70
0
 71
3
 72
9
 73
5
 74
0
 42
0.0000001
 43
0.0000001
 44
0.0000000001
 40
0.0
 40
0.0
 40
0.0
 40
0.0
 40
0.242264973
 40
1.0
 40
1.0
 40
1.0
 40
1.0
 10
639.7992520864
 20
478.4665757261
 30
0.0
 10
639.8748755214
 20
478.4428314288
 30
0.0
 10
640.1900587856
 20
478.3546127904
 30
0.0
 10
640.5153547262
 20
478.3037426502
 30
0.0
 10
640.762501462
 20
478.2842626089
 30
0.0
  0
LINE
  5
44A
100
AcDbEntity
  8
0
100
AcDbLine
 62
7
  6
CONTINUOUS
 10
641.1394281679
 20
478.2693060426
 11
641.1437680794
 21
478.2693041076
  0
SPLINE
  5
44B
100
AcDbEntity
  8
0
100
AcDbSpline
 62
7
  6
CONTINUOUS
 70
0
 71
3
 72
12
 73
8
 74
0
 42
0.0000001
 43
0.0000001
 44
0.0000000001
 40
0.0
 40
0.0
 40
0.0
 40
0.0
 40
0.1062377249
 40
0.2148164288
 40
0.4462900202
 40
0.7067166161
 40
1.0
 40
1.0
 40
1.0
 40
1.0
 10
643.9437655295
 20
479.8753181294
 30
0.0
 10
643.9437655295
 20
479.8188181177
 30
0.0
 10
643.9331208797
 20
479.7043017841
 30
0.0
 10
643.8687279932
 20
479.4747060448
 30
0.0
 10
643.7033227407
 20
479.1948675008
 30
0.0
 10
643.3989360353
 20
478.9037196092
 30
0.0
 10
643.1466249839
 20
478.747957691
 30
0.0
 10
643.0077732686
 20
478.676903819
 30
0.0
  0
SPLINE
  5
44C
100
AcDbEntity
  8
0
100
AcDbSpline
 62
7
  6
CONTINUOUS
 70
0
 71
3
 72
9
 73
5
 74
0
 42
0.0000001
 43
0.0000001
 44
0.0000000001
 40
0.0
 40
0.0
 40
0.0
 40
0.0
 40
0.242264973
 40
1.0
 40
1.0
 40
1.0
 40
1.0
 10
642.4882840725
 20
478.4665757261
 30
0.0
 10
642.4126606374
 20
478.4428314288
 30
0.0
 10
642.0974773732
 20
478.3546127904
 30
0.0
 10
641.7721814327
 20
478.3037426502
 30
0.0
 10
641.5250346969
 20
478.2842626089
 30
0.0
  0
LINE
  5
44D
100
AcDbEntity
  8
0
100
AcDbLine
 62
7
  6
CONTINUOUS
 10
641.148107991
 20
478.2693060426
 11
641.1437680794
 21
478.2693041076
  0
SPLINE
  5
44E
100
AcDbEntity
  8
0
100
AcDbSpline
 62
7
  6
CONTINUOUS
 70
0
 71
3
 72
9
 73
5
 74
0
 42
0.0000001
 43
0.0000001
 44
0.0000000001
 40
0.0
 40
0.0
 40
0.0
 40
0.0
 40
0.2396884711
 40
1.0
 40
1.0
 40
1.0
 40
1.0
 10
643.1427976591
 20
478.4640721359
 30
0.0
 10
643.1015243125
 20
478.4399354143
 30
0.0
 10
642.9265664837
 20
478.3439806221
 30
0.0
 10
642.7418081394
 20
478.2663554439
 30
0.0
 10
642.5986031395
 20
478.2164053697
 30
0.0
  0
SPLINE
  5
44F
100
AcDbEntity
  8
0
100
AcDbSpline
 62
7
  6
CONTINUOUS
 70
0
 71
3
 72
9
 73
5
 74
0
 42
0.0000001
 43
0.0000001
 44
0.0000000001
 40
0.0
 40
0.0
 40
0.0
 40
0.0
 40
0.4874888595
 40
1.0
 40
1.0
 40
1.0
 40
1.0
 10
642.5986031395
 20
478.2164053697
 30
0.0
 10
642.3751379158
 20
478.1384604339
 30
0.0
 10
641.9007769666
 20
478.0227536299
 30
0.0
 10
641.4147551809
 20
477.9837845313
 30
0.0
 10
641.1659410088
 20
477.982651389
 30
0.0
  0
SPLINE
  5
450
100
AcDbEntity
  8
ALL_AXES
100
AcDbSpline
 62
7
  6
CONTINUOUS
 70
0
 71
3
 72
9
 73
5
 74
0
 42
0.0000001
 43
0.0000001
 44
0.0000000001
 40
0.0
 40
0.0
 40
0.0
 40
0.0
 40
0.5123121612
 40
1.0
 40
1.0
 40
1.0
 40
1.0
 10
567.531576351
 20
486.8527301668
 30
0.0
 10
569.3775774308
 20
486.8527301668
 30
0.0
 10
572.9861422932
 20
486.5779493376
 30
0.0
 10
576.5098346025
 20
485.7309244868
 30
0.0
 10
578.1708414843
 20
485.1572833252
 30
0.0
  0
SPLINE
  5
451
100
AcDbEntity
  8
ALL_AXES
100
AcDbSpline
 62
7
  6
CONTINUOUS
 70
0
 71
3
 72
9
 73
5
 74
0
 42
0.0000001
 43
0.0000001
 44
0.0000000001
 40
0.0
 40
0.0
 40
0.0
 40
0.0
 40
0.5214681417
 40
1.0
 40
1.0
 40
1.0
 40
1.0
 10
578.6791588582
 20
484.9759123841
 30
0.0
 10
579.6676290858
 20
484.6116902828
 30
0.0
 10
581.5235602373
 20
483.7978234904
 30
0.0
 10
583.2447172647
 20
482.720663464
 30
0.0
 10
584.0134600339
 20
482.1345367859
 30
0.0
  0
SPLINE
  5
452
100
AcDbEntity
  8
ALL_AXES
100
AcDbSpline
 62
7
  6
CONTINUOUS
 70
0
 71
3
 72
9
 73
5
 74
0
 42
0.0000001
 43
0.0000001
 44
0.0000000001
 40
0.0
 40
0.0
 40
0.0
 40
0.0
 40
0.4785346695
 40
1.0
 40
1.0
 40
1.0
 40
1.0
 10
551.0502037734
 20
482.1349264605
 30
0.0
 10
551.8189017012
 20
482.7209687068
 30
0.0
 10
553.5399204827
 20
483.7979777705
 30
0.0
 10
555.3956795938
 20
484.6117503858
 30
0.0
 10
556.3840507338
 20
484.9759333463
 30
0.0
  0
SPLINE
  5
453
100
AcDbEntity
  8
ALL_AXES
100
AcDbSpline
 62
7
  6
CONTINUOUS
 70
0
 71
3
 72
9
 73
5
 74
0
 42
0.0000001
 43
0.0000001
 44
0.0000000001
 40
0.0
 40
0.0
 40
0.0
 40
0.0
 40
0.4876879873
 40
1.0
 40
1.0
 40
1.0
 40
1.0
 10
556.8923691762
 20
485.1573033415
 30
0.0
 10
558.5533684925
 20
485.7309376321
 30
0.0
 10
562.0770418222
 20
486.5779524889
 30
0.0
 10
565.6855862365
 20
486.8527301668
 30
0.0
 10
567.531576351
 20
486.8527301668
 30
0.0
  0
LINE
  5
454
100
AcDbEntity
  8
ALL_FEATURES
100
AcDbLine
 62
7
  6
CONTINUOUS
 10
562.4258495733
 20
486.8450018842
 11
562.4148093325
 21
486.480124763
  0
LINE
  5
455
100
AcDbEntity
  8
ALL_FEATURES
100
AcDbLine
 62
7
  6
CONTINUOUS
 10
571.3023008185
 20
486.6516624476
 11
571.288878401
 21
487.0127459354
  0
SPLINE
  5
456
100
AcDbEntity
  8
ALL_AXES
100
AcDbSpline
 62
7
  6
CONTINUOUS
 70
0
 71
3
 72
11
 73
7
 74
0
 42
0.0000001
 43
0.0000001
 44
0.0000000001
 40
0.0
 40
0.0
 40
0.0
 40
0.0
 40
0.2066145469
 40
0.4356538058
 40
0.6996224144
 40
1.0
 40
1.0
 40
1.0
 40
1.0
 10
548.0207298225
 20
476.1451374661
 30
0.0
 10
548.0207298225
 20
477.0775376081
 30
0.0
 10
548.4761093458
 20
479.0607540082
 30
0.0
 10
550.3445502071
 20
481.6778430222
 30
0.0
 10
553.1965234882
 20
483.9010169
 30
0.0
 10
555.5125728374
 20
485.0035838456
 30
0.0
 10
556.7802166357
 20
485.4837289224
 30
0.0
  0
SPLINE
  5
457
100
AcDbEntity
  8
ALL_AXES
100
AcDbSpline
 62
7
  6
CONTINUOUS
 70
0
 71
3
 72
9
 73
5
 74
0
 42
0.0000001
 43
0.0000001
 44
0.0000000001
 40
0.0
 40
0.0
 40
0.0
 40
0.0
 40
0.4740507867
 40
1.0
 40
1.0
 40
1.0
 40
1.0
 10
548.0207298225
 20
476.1451374661
 30
0.0
 10
548.0207298225
 20
475.2079915395
 30
0.0
 10
548.4798794127
 20
473.2151031548
 30
0.0
 10
549.6587750874
 20
471.5750895583
 30
0.0
 10
550.3723028712
 20
470.8188195145
 30
0.0
  0
SPLINE
  5
458
100
AcDbEntity
  8
ALL_FEATURES
100
AcDbSpline
 62
7
  6
CONTINUOUS
 70
0
 71
3
 72
8
 73
4
 74
0
 42
0.0000001
 43
0.0000001
 44
0.0000000001
 40
0.0
 40
0.0
 40
0.0
 40
0.0
 40
1.0
 40
1.0
 40
1.0
 40
1.0
 10
656.7697077929
 20
539.8530588003
 30
0.0
 10
656.6956101807
 20
540.067444512
 30
0.0
 10
656.618325002
 20
540.2807166093
 30
0.0
 10
656.5417428499
 20
540.4942274134
 30
0.0
  0
LINE
  5
459
100
AcDbEntity
  8
ALL_FEATURES
100
AcDbLine
 62
7
  6
CONTINUOUS
 10
653.4963301086
 20
492.8620631314
 11
652.9691033076
 21
492.8683199554
  0
LINE
  5
45A
100
AcDbEntity
  8
ALL_FEATURES
100
AcDbLine
 62
7
  6
CONTINUOUS
 10
652.9691033076
 20
492.8683199554
 11
651.9188392198
 21
492.8810255934
  0
SPLINE
  5
45B
100
AcDbEntity
  8
ALL_FEATURES
100
AcDbSpline
 62
7
  6
CONTINUOUS
 70
0
 71
3
 72
9
 73
5
 74
0
 42
0.0000001
 43
0.0000001
 44
0.0000000001
 40
0.0
 40
0.0
 40
0.0
 40
0.0
 40
0.250463431
 40
1.0
 40
1.0
 40
1.0
 40
1.0
 10
567.5316087578
 20
554.5468839162
 30
0.0
 10
569.4455470361
 20
554.5462061904
 30
0.0
 10
577.0862135865
 20
554.3997876483
 30
0.0
 10
584.7171217865
 20
553.6631459122
 30
0.0
 10
590.3738040347
 20
552.7643032347
 30
0.0
  0
SPLINE
  5
45C
100
AcDbEntity
  8
ALL_FEATURES
100
AcDbSpline
 62
7
  6
CONTINUOUS
 70
0
 71
3
 72
9
 73
5
 74
0
 42
0.0000001
 43
0.0000001
 44
0.0000000001
 40
0.0
 40
0.0
 40
0.0
 40
0.0
 40
0.2601854942
 40
1.0
 40
1.0
 40
1.0
 40
1.0
 10
478.2924184124
 20
539.8522029401
 30
0.0
 10
477.8767342925
 20
538.6798403053
 30
0.0
 10
476.3227387142
 20
534.1588217829
 30
0.0
 10
474.9523875062
 20
529.57305633
 30
0.0
 10
474.0775526726
 20
526.1461067498
 30
0.0
  0
SPLINE
  5
45D
100
AcDbEntity
  8
ALL_FEATURES
100
AcDbSpline
 62
7
  6
CONTINUOUS
 70
0
 71
3
 72
9
 73
5
 74
0
 42
0.0000001
 43
0.0000001
 44
0.0000000001
 40
0.0
 40
0.0
 40
0.0
 40
0.0
 40
0.2536968775
 40
1.0
 40
1.0
 40
1.0
 40
1.0
 10
472.259105954
 20
517.7708733577
 30
0.0
 10
472.1764003569
 20
517.3003473053
 30
0.0
 10
471.8639588258
 20
515.4433292402
 30
0.0
 10
471.6075028232
 20
513.5767497395
 30
0.0
 10
471.4522426988
 20
512.1799805201
 30
0.0
  0
LINE
  5
45E
100
AcDbEntity
  8
ALL_FEATURES
100
AcDbLine
 62
7
  6
CONTINUOUS
 10
471.4522426988
 20
512.1799805201
 11
471.437918769
 21
512.0501699482
  0
SPLINE
  5
45F
100
AcDbEntity
  8
ALL_FEATURES
100
AcDbSpline
 62
7
  6
CONTINUOUS
 70
0
 71
3
 72
11
 73
7
 74
0
 42
0.0000001
 43
0.0000001
 44
0.0000000001
 40
0.0
 40
0.0
 40
0.0
 40
0.0
 40
0.2697366864
 40
0.5268657055
 40
0.7701278433
 40
1.0
 40
1.0
 40
1.0
 40
1.0
 10
471.437918769
 20
512.0501699482
 30
0.0
 10
471.1910491989
 20
509.7963151115
 30
0.0
 10
470.8930913948
 20
505.3705263567
 30
0.0
 10
471.1030229204
 20
498.8876118671
 30
0.0
 10
472.0397217646
 20
492.8044074326
 30
0.0
 10
473.1932599373
 20
488.9803638977
 30
0.0
 10
473.8949636874
 20
487.1800364983
 30
0.0
  0
LINE
  5
460
100
AcDbEntity
  8
ALL_FEATURES
100
AcDbLine
 62
7
  6
CONTINUOUS
 10
478.521472385
 20
540.494228606
 11
478.4702089019
 21
540.3511367558
  0
LINE
  5
461
100
AcDbEntity
  8
ALL_FEATURES
100
AcDbLine
 62
7
  6
CONTINUOUS
 10
481.5671135515
 20
492.8619820547
 11
482.0941146232
 21
492.868318196
  0
LINE
  5
462
100
AcDbEntity
  8
ALL_FEATURES
100
AcDbLine
 62
7
  6
CONTINUOUS
 10
482.0941146232
 20
492.868318196
 11
483.144268968
 21
492.8809558014
  0
SPLINE
  5
463
100
AcDbEntity
  8
ALL_FEATURES
100
AcDbSpline
 62
7
  6
CONTINUOUS
 70
0
 71
3
 72
15
 73
11
 74
0
 42
0.0000001
 43
0.0000001
 44
0.0000000001
 40
0.0
 40
0.0
 40
0.0
 40
0.0
 40
0.1059850109
 40
0.2278991721
 40
0.3610516686
 40
0.499997303
 40
0.6389434383
 40
0.7720973535
 40
0.8940135351
 40
1.0
 40
1.0
 40
1.0
 40
1.0
 10
584.5009461034
 20
470.5031076016
 30
0.0
 10
583.5063926424
 20
469.7174544374
 30
0.0
 10
581.1461094872
 20
468.3056906227
 30
0.0
 10
577.0825425425
 20
466.7962515868
 30
0.0
 10
572.4509592102
 20
465.8424659833
 30
0.0
 10
567.5317001849
 20
465.5171976344
 30
0.0
 10
562.6124229761
 20
465.8424462501
 30
0.0
 10
557.9807885164
 20
466.7962176264
 30
0.0
 10
553.9171597715
 20
468.3056607534
 30
0.0
 10
551.5568385171
 20
469.7174436592
 30
0.0
 10
550.5622714121
 20
470.5031076016
 30
0.0
  0
SPLINE
  5
464
100
AcDbEntity
  8
ALL_FEATURES
100
AcDbSpline
 62
7
  6
CONTINUOUS
 70
0
 71
3
 72
9
 73
5
 74
0
 42
0.0000001
 43
0.0000001
 44
0.0000000001
 40
0.0
 40
0.0
 40
0.0
 40
0.0
 40
0.2525961693
 40
1.0
 40
1.0
 40
1.0
 40
1.0
 10
653.5630297848
 20
493.3354698002
 30
0.0
 10
653.7310050869
 20
494.0553401097
 30
0.0
 10
654.3194157368
 20
496.9228264758
 30
0.0
 10
654.5947681981
 20
499.8524132145
 30
0.0
 10
654.6397372641
 20
502.0391857297
 30
0.0
  0
SPLINE
  5
465
100
AcDbEntity
  8
ALL_FEATURES
100
AcDbSpline
 62
7
  6
CONTINUOUS
 70
0
 71
3
 72
9
 73
5
 74
0
 42
0.0000001
 43
0.0000001
 44
0.0000000001
 40
0.0
 40
0.0
 40
0.0
 40
0.0
 40
0.2473453507
 40
1.0
 40
1.0
 40
1.0
 40
1.0
 10
480.421135156
 20
502.0390736696
 30
0.0
 10
480.4361776933
 20
501.3154166858
 30
0.0
 10
480.5666934159
 20
498.391744965
 30
0.0
 10
480.9989228177
 20
495.4802639233
 30
0.0
 10
481.5000197016
 20
493.335510497
 30
0.0
  0
SPLINE
  5
466
100
AcDbEntity
  8
ALL_FEATURES
100
AcDbSpline
 62
7
  6
CONTINUOUS
 70
0
 71
3
 72
13
 73
9
 74
0
 42
0.0000001
 43
0.0000001
 44
0.0000000001
 40
0.0
 40
0.0
 40
0.0
 40
0.0
 40
0.1392396134
 40
0.2769537255
 40
0.5410181013
 40
0.6654397691
 40
0.7835507427
 40
1.0
 40
1.0
 40
1.0
 40
1.0
 10
567.531679166
 20
437.6910884126
 30
0.0
 10
572.5324916298
 20
437.692191142
 30
0.0
 10
582.4913198263
 20
438.2188634873
 30
0.0
 10
601.6836281483
 20
441.3983541606
 30
0.0
 10
619.7717920825
 20
447.5814221172
 30
0.0
 10
635.5510469868
 20
456.7569542954
 30
0.0
 10
648.5049104935
 20
466.9926024829
 30
0.0
 10
656.1695722588
 20
476.6734007998
 30
0.0
 10
659.6347378549
 20
483.6321891183
 30
0.0
  0
SPLINE
  5
467
100
AcDbEntity
  8
ALL_FEATURES
100
AcDbSpline
 62
7
  6
CONTINUOUS
 70
0
 71
3
 72
9
 73
5
 74
0
 42
0.0000001
 43
0.0000001
 44
0.0000000001
 40
0.0
 40
0.0
 40
0.0
 40
0.0
 40
0.2496422125
 40
1.0
 40
1.0
 40
1.0
 40
1.0
 10
544.6789205668
 20
552.7655401074
 30
0.0
 10
546.5638291619
 20
553.0650193129
 30
0.0
 10
554.1384320765
 20
554.1088715235
 30
0.0
 10
561.7950140067
 20
554.5442377833
 30
0.0
 10
567.5316087577
 20
554.5468839293
 30
0.0
  0
LINE
  5
468
100
AcDbEntity
  8
ALL_FEATURES
100
AcDbLine
 62
7
  6
CONTINUOUS
 10
475.0191559524
 20
484.487267566
 11
475.0472860925
 21
484.4266634331
  0
SPLINE
  5
469
100
AcDbEntity
  8
ALL_FEATURES
100
AcDbSpline
 62
7
  6
CONTINUOUS
 70
0
 71
3
 72
11
 73
7
 74
0
 42
0.0000001
 43
0.0000001
 44
0.0000000001
 40
0.0
 40
0.0
 40
0.0
 40
0.0
 40
0.2298730431
 40
0.4731360091
 40
0.730264613
 40
1.0
 40
1.0
 40
1.0
 40
1.0
 10
661.1686945546
 20
487.1813041775
 30
0.0
 10
661.8703515601
 20
488.9815464577
 30
0.0
 10
663.0237383038
 20
492.8054319748
 30
0.0
 10
663.960222064
 20
498.8883419125
 30
0.0
 10
664.1700967726
 20
505.3708985755
 30
0.0
 10
663.8721557697
 20
509.7964349873
 30
0.0
 10
663.6253036512
 20
512.0501582965
 30
0.0
  0
LINE
  5
46A
100
AcDbEntity
  8
ALL_FEATURES
100
AcDbLine
 62
7
  6
CONTINUOUS
 10
663.6253036512
 20
512.0501582965
 11
663.6108678701
 21
512.180976609
  0
SPLINE
  5
46B
100
AcDbEntity
  8
ALL_FEATURES
100
AcDbSpline
 62
7
  6
CONTINUOUS
 70
0
 71
3
 72
9
 73
5
 74
0
 42
0.0000001
 43
0.0000001
 44
0.0000000001
 40
0.0
 40
0.0
 40
0.0
 40
0.0
 40
0.2464351085
 40
1.0
 40
1.0
 40
1.0
 40
1.0
 10
663.6108678701
 20
512.180976609
 30
0.0
 10
663.5595874636
 20
512.6422644394
 30
0.0
 10
663.3355147678
 20
514.5123132747
 30
0.0
 10
663.0495305194
 20
516.3748031578
 30
0.0
 10
662.8038018176
 20
517.7726129314
 30
0.0
  0
SPLINE
  5
46C
100
AcDbEntity
  8
ALL_FEATURES
100
AcDbSpline
 62
7
  6
CONTINUOUS
 70
0
 71
3
 72
9
 73
5
 74
0
 42
0.0000001
 43
0.0000001
 44
0.0000000001
 40
0.0
 40
0.0
 40
0.0
 40
0.0
 40
0.2400391625
 40
1.0
 40
1.0
 40
1.0
 40
1.0
 10
660.985664597
 20
526.1461077067
 30
0.0
 10
660.7017977946
 20
527.2581182883
 30
0.0
 10
659.4578257286
 20
531.875033811
 30
0.0
 10
657.9845206073
 20
536.4286381773
 30
0.0
 10
656.7697078656
 20
539.8530543635
 30
0.0
  0
LINE
  5
46D
100
AcDbEntity
  8
ALL_FEATURES
100
AcDbLine
 62
7
  6
CONTINUOUS
 10
660.0158826025
 20
484.4268699962
 11
660.0439545507
 21
484.4873420821
  0
SPLINE
  5
46E
100
AcDbEntity
  8
ALL_FEATURES
100
AcDbSpline
 62
7
  6
CONTINUOUS
 70
0
 71
3
 72
11
 73
7
 74
0
 42
0.0000001
 43
0.0000001
 44
0.0000000001
 40
0.0
 40
0.0
 40
0.0
 40
0.0
 40
0.2442572453
 40
0.5
 40
0.7557427547
 40
1.0
 40
1.0
 40
1.0
 40
1.0
 10
557.3184372285
 20
485.662172377
 30
0.0
 10
558.9207859721
 20
486.1926119609
 30
0.0
 10
562.3051862767
 20
486.9766647619
 30
0.0
 10
567.5316087578
 20
487.3618913634
 30
0.0
 10
572.7580312388
 20
486.9766647619
 30
0.0
 10
576.1424315434
 20
486.1926119609
 30
0.0
 10
577.744780287
 20
485.662172377
 30
0.0
  0
SPLINE
  5
46F
100
AcDbEntity
  8
ALL_FEATURES
100
AcDbSpline
 62
7
  6
CONTINUOUS
 70
0
 71
3
 72
12
 73
8
 74
0
 42
0.0000001
 43
0.0000001
 44
0.0000000001
 40
0.0
 40
0.0
 40
0.0
 40
0.0
 40
0.3083547424
 40
0.4449249524
 40
0.5702126117
 40
0.7923751482
 40
1.0
 40
1.0
 40
1.0
 40
1.0
 10
627.4275307546
 20
540.5882578926
 30
0.0
 10
631.7872660159
 20
538.1089867946
 30
0.0
 10
637.8092096875
 20
533.966454003
 30
0.0
 10
644.4016263356
 20
527.4144363476
 30
0.0
 10
649.2786240847
 20
521.2133327045
 30
0.0
 10
653.4485119543
 20
513.0719177434
 30
0.0
 10
654.6468398278
 20
506.0431289215
 30
0.0
 10
654.6464345554
 20
502.6661146906
 30
0.0
  0
SPLINE
  5
470
100
AcDbEntity
  8
ALL_AXES
100
AcDbSpline
 62
7
  6
CONTINUOUS
 70
0
 71
3
 72
11
 73
7
 74
0
 42
0.0000001
 43
0.0000001
 44
0.0000000001
 40
0.0
 40
0.0
 40
0.0
 40
0.0
 40
0.3003775856
 40
0.5643461942
 40
0.7933854531
 40
1.0
 40
1.0
 40
1.0
 40
1.0
 10
578.2830008799
 20
485.4837289224
 30
0.0
 10
579.5506446781
 20
485.0035838456
 30
0.0
 10
581.8666940273
 20
483.9010169
 30
0.0
 10
584.7186673084
 20
481.6778430222
 30
0.0
 10
586.5871081697
 20
479.0607540082
 30
0.0
 10
587.042487693
 20
477.0775376081
 30
0.0
 10
587.042487693
 20
476.1451374661
 30
0.0
  0
SPLINE
  5
471
100
AcDbEntity
  8
ALL_FEATURES
100
AcDbSpline
 62
7
  6
CONTINUOUS
 70
0
 71
3
 72
12
 73
8
 74
0
 42
0.0000001
 43
0.0000001
 44
0.0000000001
 40
0.0
 40
0.0
 40
0.0
 40
0.0
 40
0.2067733348
 40
0.4290078058
 40
0.5544642283
 40
0.6912093585
 40
1.0
 40
1.0
 40
1.0
 40
1.0
 10
480.4143029092
 20
502.6661143417
 30
0.0
 10
480.4131348513
 20
506.029071032
 30
0.0
 10
481.6025516206
 20
513.0446953957
 30
0.0
 10
485.7583005361
 20
521.1820269932
 30
0.0
 10
490.6340444553
 20
527.3921727307
 30
0.0
 10
497.231346932
 20
533.9566396677
 30
0.0
 10
503.2607681373
 20
538.1056650374
 30
0.0
 10
507.6261361261
 20
540.5887466815
 30
0.0
  0
SPLINE
  5
472
100
AcDbEntity
  8
ALL_AXES
100
AcDbSpline
 62
7
  6
CONTINUOUS
 70
0
 71
3
 72
9
 73
5
 74
0
 42
0.0000001
 43
0.0000001
 44
0.0000000001
 40
0.0
 40
0.0
 40
0.0
 40
0.0
 40
0.5259492133
 40
1.0
 40
1.0
 40
1.0
 40
1.0
 10
584.6909146443
 20
470.8188195145
 30
0.0
 10
585.4044424281
 20
471.5750895583
 30
0.0
 10
586.5833381028
 20
473.2151031548
 30
0.0
 10
587.042487693
 20
475.2079915395
 30
0.0
 10
587.042487693
 20
476.1451374661
 30
0.0
  0
SPLINE
  5
473
100
AcDbEntity
  8
ALL_FEATURES
100
AcDbSpline
 62
7
  6
CONTINUOUS
 70
0
 71
3
 72
13
 73
9
 74
0
 42
0.0000001
 43
0.0000001
 44
0.0000000001
 40
0.0
 40
0.0
 40
0.0
 40
0.0
 40
0.2164492646
 40
0.3345602391
 40
0.4589819114
 40
0.723046294
 40
0.8607603993
 40
1.0
 40
1.0
 40
1.0
 40
1.0
 10
475.428483009
 20
483.6321841687
 30
0.0
 10
478.8936542173
 20
476.6733876291
 30
0.0
 10
486.5583295126
 20
466.9925794834
 30
0.0
 10
499.5122148643
 20
456.7569253189
 30
0.0
 10
515.291495275
 20
447.5813911898
 30
0.0
 10
533.3796863896
 20
441.3983284585
 30
0.0
 10
552.572020652
 20
438.2188499396
 30
0.0
 10
562.5308609859
 20
437.6921863441
 30
0.0
 10
567.531679166
 20
437.6910885832
 30
0.0
  0
SPLINE
  5
474
100
AcDbEntity
  8
ALL_FEATURES
100
AcDbSpline
 62
7
  6
CONTINUOUS
 70
0
 71
3
 72
9
 73
5
 74
0
 42
0.0000001
 43
0.0000001
 44
0.0000000001
 40
0.0
 40
0.0
 40
0.0
 40
0.0
 40
0.4916101981
 40
1.0
 40
1.0
 40
1.0
 40
1.0
 10
485.5612791704
 20
494.0726155255
 30
0.0
 10
485.1572348858
 20
494.0726155255
 30
0.0
 10
484.3261678701
 20
493.9265463067
 30
0.0
 10
483.6209574967
 20
493.4368064173
 30
0.0
 10
483.3487845407
 20
493.1197763735
 30
0.0
  0
SPLINE
  5
475
100
AcDbEntity
  8
ALL_FEATURES
100
AcDbSpline
 62
7
  6
CONTINUOUS
 70
0
 71
3
 72
9
 73
5
 74
0
 42
0.0000001
 43
0.0000001
 44
0.0000000001
 40
0.0
 40
0.0
 40
0.0
 40
0.0
 40
0.5084261317
 40
1.0
 40
1.0
 40
1.0
 40
1.0
 10
651.7143741901
 20
493.1197781955
 30
0.0
 10
651.4422915817
 20
493.4367413192
 30
0.0
 10
650.7374260847
 20
493.9264372656
 30
0.0
 10
649.9066397269
 20
494.0726155255
 30
0.0
 10
649.5027601623
 20
494.0726155255
 30
0.0
  0
SPLINE
  5
476
100
AcDbEntity
  8
ALL_FEATURES
100
AcDbSpline
 62
7
  6
CONTINUOUS
 70
0
 71
3
 72
9
 73
5
 74
0
 42
0.0000001
 43
0.0000001
 44
0.0000000001
 40
0.0
 40
0.0
 40
0.0
 40
0.0
 40
0.2474920474
 40
1.0
 40
1.0
 40
1.0
 40
1.0
 10
654.7797340371
 20
501.5732706762
 30
0.0
 10
654.7511932677
 20
500.84663599
 30
0.0
 10
654.5623244679
 20
497.9141574204
 30
0.0
 10
654.0579673996
 20
495.0006846104
 30
0.0
 10
653.4963630688
 20
492.8621357543
 30
0.0
  0
SPLINE
  5
477
100
AcDbEntity
  8
ALL_FEATURES
100
AcDbSpline
 62
7
  6
CONTINUOUS
 70
0
 71
3
 72
12
 73
8
 74
0
 42
0.0000001
 43
0.0000001
 44
0.0000000001
 40
0.0
 40
0.0
 40
0.0
 40
0.0
 40
0.3094937355
 40
0.4461592519
 40
0.5712210524
 40
0.7927269625
 40
1.0
 40
1.0
 40
1.0
 40
1.0
 10
627.4378662905
 20
540.595510158
 30
0.0
 10
631.8552035037
 20
538.1399199462
 30
0.0
 10
637.9578461467
 20
534.0240386281
 30
0.0
 10
644.62751831
 20
527.4728627508
 30
0.0
 10
649.5401275356
 20
521.2753809257
 30
0.0
 10
653.7159256537
 20
513.1130756008
 30
0.0
 10
654.8587987635
 20
506.054016506
 30
0.0
 10
654.8089654623
 20
502.6696448296
 30
0.0
  0
SPLINE
  5
478
100
AcDbEntity
  8
ALL_FEATURES
100
AcDbSpline
 62
7
  6
CONTINUOUS
 70
0
 71
3
 72
9
 73
5
 74
0
 42
0.0000001
 43
0.0000001
 44
0.0000000001
 40
0.0
 40
0.0
 40
0.0
 40
0.0
 40
0.2528356983
 40
1.0
 40
1.0
 40
1.0
 40
1.0
 10
481.5670814094
 20
492.8620526813
 30
0.0
 10
481.3781578928
 20
493.580613779
 30
0.0
 10
480.7117952817
 20
496.4435213929
 30
0.0
 10
480.3680263284
 20
499.3795152783
 30
0.0
 10
480.2813701466
 20
501.5734184457
 30
0.0
  0
SPLINE
  5
479
100
AcDbEntity
  8
ALL_FEATURES
100
AcDbSpline
 62
7
  6
CONTINUOUS
 70
0
 71
3
 72
13
 73
9
 74
0
 42
0.0000001
 43
0.0000001
 44
0.0000000001
 40
0.0
 40
0.0
 40
0.0
 40
0.0
 40
0.2760806995
 40
0.5399715102
 40
0.6644020979
 40
0.7825763453
 40
0.8943338714
 40
1.0
 40
1.0
 40
1.0
 40
1.0
 10
567.5316087578
 20
438.1164659674
 30
0.0
 10
577.4255501077
 20
438.1186491889
 30
0.0
 10
596.8366139015
 20
440.1590778969
 30
0.0
 10
619.6200313375
 20
447.8774164635
 30
0.0
 10
635.3977433819
 20
456.9532506169
 30
0.0
 10
645.4362535747
 20
464.8128425933
 30
0.0
 10
653.643321288
 20
473.6759136414
 30
0.0
 10
657.876685295
 20
480.2829270949
 30
0.0
 10
659.5834813136
 20
483.6632355412
 30
0.0
  0
SPLINE
  5
47A
100
AcDbEntity
  8
ALL_FEATURES
100
AcDbSpline
 62
7
  6
CONTINUOUS
 70
0
 71
3
 72
12
 73
8
 74
0
 42
0.0000001
 43
0.0000001
 44
0.0000000001
 40
0.0
 40
0.0
 40
0.0
 40
0.0
 40
0.2063949182
 40
0.4279575802
 40
0.5531944657
 40
0.6900449412
 40
1.0
 40
1.0
 40
1.0
 40
1.0
 10
480.2518980474
 20
502.6697569513
 30
0.0
 10
480.2016508556
 20
506.0394974706
 30
0.0
 10
481.3348682793
 20
513.084369657
 30
0.0
 10
485.4956376034
 20
521.2421809576
 30
0.0
 10
490.406488716
 20
527.4489607235
 30
0.0
 10
497.0812028509
 20
534.0132366251
 30
0.0
 10
503.1916828739
 20
538.1359533593
 30
0.0
 10
507.6149462151
 20
540.595510475
 30
0.0
  0
SPLINE
  5
47B
100
AcDbEntity
  8
ALL_FEATURES
100
AcDbSpline
 62
7
  6
CONTINUOUS
 70
0
 71
3
 72
9
 73
5
 74
0
 42
0.0000001
 43
0.0000001
 44
0.0000000001
 40
0.0
 40
0.0
 40
0.0
 40
0.0
 40
0.2512381558
 40
1.0
 40
1.0
 40
1.0
 40
1.0
 10
512.2055469259
 20
542.9649661662
 30
0.0
 10
514.7730316648
 20
544.1941959994
 30
0.0
 10
525.2044761779
 20
548.6426672661
 30
0.0
 10
536.3004057103
 20
551.4343397624
 30
0.0
 10
544.6789205668
 20
552.7655401074
 30
0.0
  0
SPLINE
  5
47C
100
AcDbEntity
  8
ALL_FEATURES
100
AcDbSpline
 62
7
  6
CONTINUOUS
 70
0
 71
3
 72
9
 73
5
 74
0
 42
0.0000001
 43
0.0000001
 44
0.0000000001
 40
0.0
 40
0.0
 40
0.0
 40
0.0
 40
0.4930102945
 40
1.0
 40
1.0
 40
1.0
 40
1.0
 10
511.4025263644
 20
594.2566541106
 30
0.0
 10
509.5152363662
 20
592.3741249384
 30
0.0
 10
505.7994299909
 20
588.4398821785
 30
0.0
 10
502.3826604592
 20
584.2427639681
 30
0.0
 10
500.719071252
 20
582.0640176521
 30
0.0
  0
SPLINE
  5
47D
100
AcDbEntity
  8
ALL_FEATURES
100
AcDbSpline
 62
7
  6
CONTINUOUS
 70
0
 71
3
 72
10
 73
6
 74
0
 42
0.0000001
 43
0.0000001
 44
0.0000000001
 40
0.0
 40
0.0
 40
0.0
 40
0.0
 40
0.2436425786
 40
0.4919158868
 40
1.0
 40
1.0
 40
1.0
 40
1.0
 10
500.2562402127
 20
581.4542082423
 30
0.0
 10
499.0603598531
 20
579.8690989892
 30
0.0
 10
496.716724921
 20
576.614866628
 30
0.0
 10
492.2167039035
 20
569.8176148526
 30
0.0
 10
489.199853555
 20
564.4300754059
 30
0.0
 10
487.3067719141
 20
560.7474024579
 30
0.0
  0
SPLINE
  5
47E
100
AcDbEntity
  8
ALL_FEATURES
100
AcDbSpline
 62
7
  6
CONTINUOUS
 70
0
 71
3
 72
13
 73
9
 74
0
 42
0.0000001
 43
0.0000001
 44
0.0000000001
 40
0.0
 40
0.0
 40
0.0
 40
0.0
 40
0.1056661546
 40
0.2174236752
 40
0.3355979211
 40
0.4600285061
 40
0.7239193091
 40
1.0
 40
1.0
 40
1.0
 40
1.0
 10
475.4797397642
 20
483.6632302888
 30
0.0
 10
477.186536643
 20
480.2829215221
 30
0.0
 10
481.4199014661
 20
473.6759083341
 30
0.0
 10
489.6269705972
 20
464.8128388072
 30
0.0
 10
499.6654802787
 20
456.9532482443
 30
0.0
 10
515.443191347
 20
447.8774157219
 30
0.0
 10
538.2266065403
 20
440.159078231
 30
0.0
 10
557.6376683908
 20
438.1186490969
 30
0.0
 10
567.5316087577
 20
438.1164659622
 30
0.0
  0
SPLINE
  5
47F
100
AcDbEntity
  8
ALL_FEATURES
100
AcDbSpline
 62
7
  6
CONTINUOUS
 70
0
 71
3
 72
9
 73
5
 74
0
 42
0.0000001
 43
0.0000001
 44
0.0000000001
 40
0.0
 40
0.0
 40
0.0
 40
0.0
 40
0.497371404
 40
1.0
 40
1.0
 40
1.0
 40
1.0
 10
590.3738040347
 20
552.7643032347
 30
0.0
 10
595.9436396482
 20
551.879260424
 30
0.0
 10
607.0503310889
 20
549.4358851007
 30
0.0
 10
617.7141798658
 20
545.4200146374
 30
0.0
 10
622.8555247321
 20
542.9605676147
 30
0.0
  0
SPLINE
  5
480
100
AcDbEntity
  8
ALL_FEATURES
100
AcDbSpline
 62
7
  6
CONTINUOUS
 70
0
 71
3
 72
10
 73
6
 74
0
 42
0.0000001
 43
0.0000001
 44
0.0000000001
 40
0.0
 40
0.0
 40
0.0
 40
0.0
 40
0.5080844057
 40
0.7563558154
 40
1.0
 40
1.0
 40
1.0
 40
1.0
 10
647.7567136139
 20
560.7467329838
 30
0.0
 10
645.8635873923
 20
564.4294779765
 30
0.0
 10
642.8466521268
 20
569.8170854478
 30
0.0
 10
638.3467885881
 20
576.6146355575
 30
0.0
 10
636.0030407695
 20
579.8688866539
 30
0.0
 10
634.8070660379
 20
581.4539904032
 30
0.0
  0
SPLINE
  5
481
100
AcDbEntity
  8
ALL_FEATURES
100
AcDbSpline
 62
7
  6
CONTINUOUS
 70
0
 71
3
 72
9
 73
5
 74
0
 42
0.0000001
 43
0.0000001
 44
0.0000000001
 40
0.0
 40
0.0
 40
0.0
 40
0.0
 40
0.5069114813
 40
1.0
 40
1.0
 40
1.0
 40
1.0
 10
634.3442134127
 20
582.0637848547
 30
0.0
 10
632.69900562
 20
584.2183326465
 30
0.0
 10
629.3216315395
 20
588.3710682438
 30
0.0
 10
625.6508455216
 20
592.2663557149
 30
0.0
 10
623.7863925575
 20
594.1311014654
 30
0.0
  0
SPLINE
  5
482
100
AcDbEntity
  8
ALL_FEATURES
100
AcDbSpline
 62
7
  6
CONTINUOUS
 70
0
 71
3
 72
13
 73
9
 74
0
 42
0.0000001
 43
0.0000001
 44
0.0000000001
 40
0.0
 40
0.0
 40
0.0
 40
0.0
 40
0.2863815987
 40
0.5737461743
 40
0.7026710011
 40
0.8159084669
 40
0.9133375952
 40
1.0
 40
1.0
 40
1.0
 40
1.0
 10
642.8961723927
 20
481.8256168497
 30
0.0
 10
642.3469238528
 20
482.0113851417
 30
0.0
 10
641.1764090408
 20
482.1814013701
 30
0.0
 10
639.7431807867
 20
481.9899457606
 30
0.0
 10
638.7476671655
 20
481.5753627574
 30
0.0
 10
638.1791970657
 20
481.1762854166
 30
0.0
 10
637.7984862408
 20
480.6953395255
 30
0.0
 10
637.6979895315
 20
480.3216252899
 30
0.0
 10
637.6940505735
 20
480.1462111642
 30
0.0
  0
SPLINE
  5
483
100
AcDbEntity
  8
ALL_AXES
100
AcDbSpline
 62
7
  6
CONTINUOUS
 70
0
 71
3
 72
11
 73
7
 74
0
 42
0.0000001
 43
0.0000001
 44
0.0000000001
 40
0.0
 40
0.0
 40
0.0
 40
0.0
 40
0.2428658984
 40
0.5
 40
0.7571341016
 40
1.0
 40
1.0
 40
1.0
 40
1.0
 10
556.7802166357
 20
485.4837289224
 30
0.0
 10
558.4386736221
 20
486.1119021981
 30
0.0
 10
561.9976422191
 20
487.0372064798
 30
0.0
 10
567.5316087578
 20
487.489805298
 30
0.0
 10
573.0655752964
 20
487.0372064798
 30
0.0
 10
576.6245438935
 20
486.1119021981
 30
0.0
 10
578.2830008799
 20
485.4837289224
 30
0.0
  0
SPLINE
  5
484
100
AcDbEntity
  8
ALL_FEATURES
100
AcDbSpline
 62
7
  6
CONTINUOUS
 70
0
 71
3
 72
10
 73
6
 74
0
 42
0.0000001
 43
0.0000001
 44
0.0000000001
 40
0.0
 40
0.0
 40
0.0
 40
0.0
 40
0.4991840876
 40
0.7433929486
 40
1.0
 40
1.0
 40
1.0
 40
1.0
 10
492.1671171247
 20
481.8256381687
 30
0.0
 10
492.0200185378
 20
481.7758561915
 30
0.0
 10
491.7990830632
 20
481.7036705858
 30
0.0
 10
491.4871047225
 20
481.6710287072
 30
0.0
 10
491.3296901178
 20
481.73117609
 30
0.0
 10
491.2712719978
 20
481.7855824313
 30
0.0
  0
SPLINE
  5
485
100
AcDbEntity
  8
ALL_FEATURES
100
AcDbSpline
 62
7
  6
CONTINUOUS
 70
0
 71
3
 72
9
 73
5
 74
0
 42
0.0000001
 43
0.0000001
 44
0.0000000001
 40
0.0
 40
0.0
 40
0.0
 40
0.0
 40
0.2007527737
 40
1.0
 40
1.0
 40
1.0
 40
1.0
 10
638.4966136148
 20
478.8440461544
 30
0.0
 10
638.4966914069
 20
478.8439672297
 30
0.0
 10
638.4968203929
 20
478.8432035982
 30
0.0
 10
638.4958738691
 20
478.8440391821
 30
0.0
 10
638.4954780119
 20
478.8442339914
 30
0.0
  0
LINE
  5
486
100
AcDbEntity
  8
ALL_FEATURES
100
AcDbLine
 62
7
  6
CONTINUOUS
 10
638.4954780119
 20
478.8442339914
 11
638.4869976173
 21
478.8489100919
  0
SPLINE
  5
487
100
AcDbEntity
  8
ALL_FEATURES
100
AcDbSpline
 62
7
  6
CONTINUOUS
 70
0
 71
3
 72
13
 73
9
 74
0
 42
0.0000001
 43
0.0000001
 44
0.0000000001
 40
0.0
 40
0.0
 40
0.0
 40
0.0
 40
0.2863893408
 40
0.5737579084
 40
0.7026811258
 40
0.8159145851
 40
0.9133391953
 40
1.0
 40
1.0
 40
1.0
 40
1.0
 10
492.1670393807
 20
481.8256117058
 30
0.0
 10
492.7163233298
 20
482.0114170288
 30
0.0
 10
493.8869369136
 20
482.181403067
 30
0.0
 10
495.3202548993
 20
481.9899032754
 30
0.0
 10
496.3157926063
 20
481.5752358322
 30
0.0
 10
496.8842375594
 20
481.1760923489
 30
0.0
 10
497.2648790185
 20
480.6950706756
 30
0.0
 10
497.3652836964
 20
480.3213195461
 30
0.0
 10
497.3691739177
 20
480.1458985741
 30
0.0
  0
SPLINE
  5
488
100
AcDbEntity
  8
ALL_FEATURES
100
AcDbSpline
 62
7
  6
CONTINUOUS
 70
0
 71
3
 72
9
 73
5
 74
0
 42
0.0000001
 43
0.0000001
 44
0.0000000001
 40
0.0
 40
0.0
 40
0.0
 40
0.0
 40
0.2579385724
 40
1.0
 40
1.0
 40
1.0
 40
1.0
 10
491.2712773023
 20
481.7855855336
 30
0.0
 10
491.1938844292
 20
481.8576568742
 30
0.0
 10
490.879690617
 20
482.1207860531
 30
0.0
 10
490.5155067767
 20
482.3297434905
 30
0.0
 10
490.2271589126
 20
482.4267972624
 30
0.0
  0
SPLINE
  5
489
100
AcDbEntity
  8
ALL_FEATURES
100
AcDbSpline
 62
7
  6
CONTINUOUS
 70
0
 71
3
 72
9
 73
5
 74
0
 42
0.0000001
 43
0.0000001
 44
0.0000000001
 40
0.0
 40
0.0
 40
0.0
 40
0.0
 40
0.86009641
 40
1.0
 40
1.0
 40
1.0
 40
1.0
 10
496.5762463499
 20
478.848925793
 30
0.0
 10
496.573557483
 20
478.847390174
 30
0.0
 10
496.5732838965
 20
478.8463656377
 30
0.0
 10
496.5662947414
 20
478.8437180984
 30
0.0
 10
496.5666492976
 20
478.8440758364
 30
0.0
  0
SPLINE
  5
48A
100
AcDbEntity
  8
ALL_FEATURES
100
AcDbSpline
 62
7
  6
CONTINUOUS
 70
0
 71
3
 72
9
 73
5
 74
0
 42
0.0000001
 43
0.0000001
 44
0.0000000001
 40
0.0
 40
0.0
 40
0.0
 40
0.0
 40
0.1987955566
 40
1.0
 40
1.0
 40
1.0
 40
1.0
 10
496.5762453127
 20
478.8489275417
 30
0.0
 10
496.5875047192
 20
478.8553575855
 30
0.0
 10
496.6507723836
 20
478.8764004046
 30
0.0
 10
496.7190059088
 20
478.8556264252
 30
0.0
 10
496.7674488351
 20
478.8360280619
 30
0.0
  0
SPLINE
  5
48B
100
AcDbEntity
  8
ALL_FEATURES
100
AcDbSpline
 62
7
  6
CONTINUOUS
 70
0
 71
3
 72
9
 73
5
 74
0
 42
0.0000001
 43
0.0000001
 44
0.0000000001
 40
0.0
 40
0.0
 40
0.0
 40
0.0
 40
0.2008131345
 40
1.0
 40
1.0
 40
1.0
 40
1.0
 10
496.7674488351
 20
478.8360280619
 30
0.0
 10
496.7956675039
 20
478.8246117465
 30
0.0
 10
496.9317589929
 20
478.7569535509
 30
0.0
 10
497.0523692954
 20
478.6623538655
 30
0.0
 10
497.1440140614
 20
478.5831229304
 30
0.0
  0
SPLINE
  5
48C
100
AcDbEntity
  8
ALL_FEATURES
100
AcDbSpline
 62
7
  6
CONTINUOUS
 70
0
 71
3
 72
9
 73
5
 74
0
 42
0.0000001
 43
0.0000001
 44
0.0000000001
 40
0.0
 40
0.0
 40
0.0
 40
0.0
 40
0.2579385224
 40
1.0
 40
1.0
 40
1.0
 40
1.0
 10
643.7919413416
 20
481.7855766929
 30
0.0
 10
643.8693333936
 20
481.8576497859
 30
0.0
 10
644.1835332274
 20
482.1207758557
 30
0.0
 10
644.5477128625
 20
482.3297418009
 30
0.0
 10
644.836060377
 20
482.4268022123
 30
0.0
  0
SPLINE
  5
48D
100
AcDbEntity
  8
ALL_FEATURES
100
AcDbSpline
 62
7
  6
CONTINUOUS
 70
0
 71
3
 72
9
 73
5
 74
0
 42
0.0000001
 43
0.0000001
 44
0.0000000001
 40
0.0
 40
0.0
 40
0.0
 40
0.0
 40
0.1986562402
 40
1.0
 40
1.0
 40
1.0
 40
1.0
 10
638.4870010797
 20
478.8489159295
 30
0.0
 10
638.4757386855
 20
478.8553480709
 30
0.0
 10
638.4124066715
 20
478.8764008951
 30
0.0
 10
638.344116262
 20
478.8556596802
 30
0.0
 10
638.295588135
 20
478.8361110119
 30
0.0
  0
SPLINE
  5
48E
100
AcDbEntity
  8
ALL_FEATURES
100
AcDbSpline
 62
7
  6
CONTINUOUS
 70
0
 71
3
 72
9
 73
5
 74
0
 42
0.0000001
 43
0.0000001
 44
0.0000000001
 40
0.0
 40
0.0
 40
0.0
 40
0.0
 40
0.2009592101
 40
1.0
 40
1.0
 40
1.0
 40
1.0
 10
638.295588135
 20
478.8361110119
 30
0.0
 10
638.267336926
 20
478.8247305291
 30
0.0
 10
638.1311599906
 20
478.7572763307
 30
0.0
 10
638.0108151883
 20
478.6623297029
 30
0.0
 10
637.9192045151
 20
478.5831259148
 30
0.0
  0
SPLINE
  5
48F
100
AcDbEntity
  8
ALL_FEATURES
100
AcDbSpline
 62
7
  6
CONTINUOUS
 70
0
 71
3
 72
10
 73
6
 74
0
 42
0.0000001
 43
0.0000001
 44
0.0000000001
 40
0.0
 40
0.0
 40
0.0
 40
0.0
 40
0.2566234974
 40
0.5008170729
 40
1.0
 40
1.0
 40
1.0
 40
1.0
 10
643.791951506
 20
481.7855707482
 30
0.0
 10
643.733535059
 20
481.7311653484
 30
0.0
 10
643.5761270007
 20
481.6710376526
 30
0.0
 10
643.2641779836
 20
481.7036658658
 30
0.0
 10
643.0432724422
 20
481.7758645092
 30
0.0
 10
642.8961779122
 20
481.8256149711
 30
0.0
  0
SPLINE
  5
490
100
AcDbEntity
  8
ALL_FEATURES
100
AcDbSpline
 62
7
  6
CONTINUOUS
 70
0
 71
3
 72
13
 73
9
 74
0
 42
0.0000001
 43
0.0000001
 44
0.0000000001
 40
0.0
 40
0.0
 40
0.0
 40
0.0
 40
0.1039433967
 40
0.2150329198
 40
0.3324680252
 40
0.4567646383
 40
0.7206027429
 40
1.0
 40
1.0
 40
1.0
 40
1.0
 10
660.1028601789
 20
483.3965093678
 30
0.0
 10
658.4154025085
 20
480.0528043384
 30
0.0
 10
654.2225639043
 20
473.4739144368
 30
0.0
 10
646.0722576801
 20
464.6221115889
 30
0.0
 10
636.0482650527
 20
456.7219710119
 30
0.0
 10
620.236044079
 20
447.5724804262
 30
0.0
 10
597.2373125359
 20
439.7248677168
 30
0.0
 10
577.5990986823
 20
437.6486453002
 30
0.0
 10
567.5316087578
 20
437.6487435206
 30
0.0
  0
SPLINE
  5
491
100
AcDbEntity
  8
ALL_FEATURES
100
AcDbSpline
 62
7
  6
CONTINUOUS
 70
0
 71
3
 72
9
 73
5
 74
0
 42
0.0000001
 43
0.0000001
 44
0.0000000001
 40
0.0
 40
0.0
 40
0.0
 40
0.0
 40
0.5127370898
 40
1.0
 40
1.0
 40
1.0
 40
1.0
 10
664.6607614199
 20
503.8444725487
 30
0.0
 10
664.6356377843
 20
500.9520918145
 30
0.0
 10
664.2049295218
 20
495.3027360732
 30
0.0
 10
662.7783347593
 20
489.8010561304
 30
0.0
 10
661.8050240143
 20
487.2303608097
 30
0.0
  0
SPLINE
  5
492
100
AcDbEntity
  8
ALL_FEATURES
100
AcDbSpline
 62
7
  6
CONTINUOUS
 70
0
 71
3
 72
9
 73
5
 74
0
 42
0.0000001
 43
0.0000001
 44
0.0000000001
 40
0.0
 40
0.0
 40
0.0
 40
0.0
 40
0.4872784509
 40
1.0
 40
1.0
 40
1.0
 40
1.0
 10
473.2551431898
 20
487.2384200816
 30
0.0
 10
472.282876047
 20
489.8081192813
 30
0.0
 10
470.857848109
 20
495.3071809558
 30
0.0
 10
470.4275647636
 20
500.9536686278
 30
0.0
 10
470.4024558531
 20
503.8445005401
 30
0.0
  0
SPLINE
  5
493
100
AcDbEntity
  8
ALL_FEATURES
100
AcDbSpline
 62
7
  6
CONTINUOUS
 70
0
 71
3
 72
13
 73
9
 74
0
 42
0.0000001
 43
0.0000001
 44
0.0000000001
 40
0.0
 40
0.0
 40
0.0
 40
0.0
 40
0.2793972533
 40
0.543235356
 40
0.6675319697
 40
0.784967076
 40
0.8960566007
 40
1.0
 40
1.0
 40
1.0
 40
1.0
 10
567.5316087577
 20
437.6487435199
 30
0.0
 10
557.4641195831
 20
437.6486452995
 30
0.0
 10
537.8259071468
 20
439.7248674154
 30
0.0
 10
514.8271770297
 20
447.5724789737
 30
0.0
 10
499.0149566283
 20
456.7219682534
 30
0.0
 10
488.9909640427
 20
464.6221077797
 30
0.0
 10
480.8406574649
 20
473.4739095345
 30
0.0
 10
476.6478183461
 20
480.0527987097
 30
0.0
 10
474.9603603384
 20
483.3965034189
 30
0.0
  0
SPLINE
  5
494
100
AcDbEntity
  8
ALL_FEATURES
100
AcDbSpline
 62
7
  6
CONTINUOUS
 70
0
 71
3
 72
9
 73
5
 74
0
 42
0.0000001
 43
0.0000001
 44
0.0000000001
 40
0.0
 40
0.0
 40
0.0
 40
0.0
 40
0.4975340037
 40
1.0
 40
1.0
 40
1.0
 40
1.0
 10
513.3368384513
 20
540.5955142872
 30
0.0
 10
521.6707287353
 20
544.5716264584
 30
0.0
 10
539.6147874886
 20
550.1128827081
 30
0.0
 10
558.2062679854
 20
551.8469151596
 30
0.0
 10
567.5316087578
 20
551.8469151596
 30
0.0
  0
SPLINE
  5
495
100
AcDbEntity
  8
ALL_FEATURES
100
AcDbSpline
 62
7
  6
CONTINUOUS
 70
0
 71
3
 72
9
 73
5
 74
0
 42
0.0000001
 43
0.0000001
 44
0.0000000001
 40
0.0
 40
0.0
 40
0.0
 40
0.0
 40
0.5069967738
 40
1.0
 40
1.0
 40
1.0
 40
1.0
 10
621.7263790642
 20
540.5955142872
 30
0.0
 10
626.7116962141
 20
538.2170116286
 30
0.0
 10
636.1581542962
 20
532.6505187106
 30
0.0
 10
644.0066353287
 20
524.7659844774
 30
0.0
 10
646.9671705108
 20
520.2843669585
 30
0.0
  0
SPLINE
  5
496
100
AcDbEntity
  8
ALL_FEATURES
100
AcDbSpline
 62
7
  6
CONTINUOUS
 70
0
 71
3
 72
9
 73
5
 74
0
 42
0.0000001
 43
0.0000001
 44
0.0000000001
 40
0.0
 40
0.0
 40
0.0
 40
0.0
 40
0.5031893218
 40
1.0
 40
1.0
 40
1.0
 40
1.0
 10
567.5316087578
 20
551.8469151596
 30
0.0
 10
576.8703854419
 20
551.8469151596
 30
0.0
 10
595.4622697229
 20
550.110470556
 30
0.0
 10
613.4045944234
 20
544.5658508369
 30
0.0
 10
621.7263790642
 20
540.5955142872
 30
0.0
  0
SPLINE
  5
497
100
AcDbEntity
  8
ALL_FEATURES
100
AcDbSpline
 62
7
  6
CONTINUOUS
 70
0
 71
3
 72
11
 73
7
 74
0
 42
0.0000001
 43
0.0000001
 44
0.0000000001
 40
0.0
 40
0.0
 40
0.0
 40
0.0
 40
0.2497375862
 40
0.4969004985
 40
0.7456557259
 40
1.0
 40
1.0
 40
1.0
 40
1.0
 10
665.1615729972
 20
520.656084579
 30
0.0
 10
666.092245451
 20
517.6314911608
 30
0.0
 10
667.4116455578
 20
511.4322686036
 30
0.0
 10
667.6239886171
 20
501.9318764933
 30
0.0
 10
666.0488754559
 20
492.5023438262
 30
0.0
 10
663.8623105491
 20
486.4726407497
 30
0.0
 10
662.5129408389
 20
483.5458035739
 30
0.0
  0
SPLINE
  5
498
100
AcDbEntity
  8
ALL_FEATURES
100
AcDbSpline
 62
7
  6
CONTINUOUS
 70
0
 71
3
 72
13
 73
9
 74
0
 42
0.0000001
 43
0.0000001
 44
0.0000000001
 40
0.0
 40
0.0
 40
0.0
 40
0.0
 40
0.1060747002
 40
0.2177385556
 40
0.3356390152
 40
0.4597654669
 40
0.7234333825
 40
1.0
 40
1.0
 40
1.0
 40
1.0
 10
662.5129408389
 20
483.5458035739
 30
0.0
 10
660.8527263426
 20
479.9447315541
 30
0.0
 10
656.6681449255
 20
472.8922719233
 30
0.0
 10
648.3590639886
 20
463.4121640685
 30
0.0
 10
638.093277149
 20
454.9923649102
 30
0.0
 10
621.8253914079
 20
445.2519152759
 30
0.0
 10
598.1326210457
 20
436.9421653879
 30
0.0
 10
577.8704032523
 20
434.7359960693
 30
0.0
 10
567.5316087578
 20
434.7359960693
 30
0.0
  0
SPLINE
  5
499
100
AcDbEntity
  8
ALL_FEATURES
100
AcDbSpline
 62
7
  6
CONTINUOUS
 70
0
 71
3
 72
9
 73
5
 74
0
 42
0.0000001
 43
0.0000001
 44
0.0000000001
 40
0.0
 40
0.0
 40
0.0
 40
0.0
 40
0.4932034689
 40
1.0
 40
1.0
 40
1.0
 40
1.0
 10
488.1100236116
 20
520.3055090405
 30
0.0
 10
491.0723711327
 20
524.7836064038
 30
0.0
 10
498.9178047488
 20
532.6584926794
 30
0.0
 10
508.3573100532
 20
538.2197734512
 30
0.0
 10
513.3368384513
 20
540.5955142872
 30
0.0
  0
LINE
  5
49A
100
AcDbEntity
  8
ALL_FEATURES
100
AcDbLine
 62
7
  6
CONTINUOUS
 10
664.1701291605
 20
512.6523243077
 11
664.1755123258
 21
512.6053075902
  0
LINE
  5
49B
100
AcDbEntity
  8
ALL_FEATURES
100
AcDbLine
 62
7
  6
CONTINUOUS
 10
664.2249361218
 20
512.1618895871
 11
664.2307337987
 21
512.1083910278
  0
SPLINE
  5
49C
100
AcDbEntity
  8
ALL_FEATURES
100
AcDbSpline
 62
7
  6
CONTINUOUS
 70
0
 71
3
 72
9
 73
5
 74
0
 42
0.0000001
 43
0.0000001
 44
0.0000000001
 40
0.0
 40
0.0
 40
0.0
 40
0.0
 40
0.2694515027
 40
1.0
 40
1.0
 40
1.0
 40
1.0
 10
635.2742071324
 20
581.8077753459
 30
0.0
 10
636.6038217626
 20
580.0499998315
 30
0.0
 10
641.3744112737
 20
573.4029023295
 30
0.0
 10
645.5457699062
 20
566.3343315064
 30
0.0
 10
648.2832122023
 20
561.0226265807
 30
0.0
  0
LINE
  5
49D
100
AcDbEntity
  8
ALL_FEATURES
100
AcDbLine
 62
7
  6
CONTINUOUS
 10
470.8930927312
 20
512.6523624487
 11
470.8889540013
 21
512.6162359762
  0
LINE
  5
49E
100
AcDbEntity
  8
ALL_FEATURES
100
AcDbLine
 62
7
  6
CONTINUOUS
 10
470.8383119102
 20
512.1621703131
 11
470.8324836654
 21
512.1083905523
  0
SPLINE
  5
49F
100
AcDbEntity
  8
ALL_FEATURES
100
AcDbSpline
 62
7
  6
CONTINUOUS
 70
0
 71
3
 72
9
 73
5
 74
0
 42
0.0000001
 43
0.0000001
 44
0.0000000001
 40
0.0
 40
0.0
 40
0.0
 40
0.0
 40
0.2384360746
 40
1.0
 40
1.0
 40
1.0
 40
1.0
 10
486.7800053152
 20
561.0226265846
 30
0.0
 10
487.6733689121
 20
562.7561001374
 30
0.0
 10
491.5514263883
 20
569.9571349358
 30
0.0
 10
496.0313986174
 20
576.8401420186
 30
0.0
 10
499.7890103773
 20
581.8077753382
 30
0.0
  0
SPLINE
  5
4A0
100
AcDbEntity
  8
ALL_FEATURES
100
AcDbSpline
 62
7
  6
CONTINUOUS
 70
0
 71
3
 72
13
 73
9
 74
0
 42
0.0000001
 43
0.0000001
 44
0.0000000001
 40
0.0
 40
0.0
 40
0.0
 40
0.0
 40
0.2765666617
 40
0.5402345755
 40
0.6643610153
 40
0.7822614609
 40
0.8939253048
 40
1.0
 40
1.0
 40
1.0
 40
1.0
 10
567.5316087578
 20
434.7359960693
 30
0.0
 10
557.1928166081
 20
434.7359960693
 30
0.0
 10
536.9306050594
 20
436.9421641437
 30
0.0
 10
513.2378422216
 20
445.2519088013
 30
0.0
 10
496.9699616031
 20
454.9923505211
 30
0.0
 10
486.7041770344
 20
463.412141995
 30
0.0
 10
478.3950955838
 20
472.8922412329
 30
0.0
 10
474.2105114416
 20
479.9446947194
 30
0.0
 10
472.5502950208
 20
483.5457639575
 30
0.0
  0
SPLINE
  5
4A1
100
AcDbEntity
  8
ALL_FEATURES
100
AcDbSpline
 62
7
  6
CONTINUOUS
 70
0
 71
3
 72
11
 73
7
 74
0
 42
0.0000001
 43
0.0000001
 44
0.0000000001
 40
0.0
 40
0.0
 40
0.0
 40
0.0
 40
0.2543442465
 40
0.503099461
 40
0.7502623991
 40
1.0
 40
1.0
 40
1.0
 40
1.0
 10
472.5502950208
 20
483.5457639575
 30
0.0
 10
471.2009217657
 20
486.4726031689
 30
0.0
 10
469.0143502778
 20
492.502311133
 30
0.0
 10
467.4392297428
 20
501.9318535817
 30
0.0
 10
467.6515700527
 20
511.4322571099
 30
0.0
 10
468.9709709462
 20
517.6314875264
 30
0.0
 10
469.9016445183
 20
520.656084579
 30
0.0
  0
SPLINE
  5
4A2
100
AcDbEntity
  8
ALL_FEATURES
100
AcDbSpline
 62
7
  6
CONTINUOUS
 70
0
 71
3
 72
11
 73
7
 74
0
 42
0.0000001
 43
0.0000001
 44
0.0000000001
 40
0.0
 40
0.0
 40
0.0
 40
0.0
 40
0.2616891332
 40
0.5204340944
 40
0.7698960479
 40
1.0
 40
1.0
 40
1.0
 40
1.0
 10
508.3762368062
 20
539.799027295
 30
0.0
 10
504.6141140586
 20
537.6650711151
 30
0.0
 10
497.4264229724
 20
532.8530574347
 30
0.0
 10
488.4005456302
 20
523.7231980739
 30
0.0
 10
482.3423112765
 20
512.9135389093
 30
0.0
 10
480.984865528
 20
504.8978923918
 30
0.0
 10
481.0729891635
 20
501.0957554877
 30
0.0
  0
LINE
  5
4A3
100
AcDbEntity
  8
ALL_FEATURES
100
AcDbLine
 62
7
  6
CONTINUOUS
 10
481.9629480243
 20
493.2626704579
 11
482.7439275878
 21
493.2705785746
  0
SPLINE
  5
4A4
100
AcDbEntity
  8
ALL_FEATURES
100
AcDbSpline
 62
7
  6
CONTINUOUS
 70
0
 71
3
 72
11
 73
7
 74
0
 42
0.0000001
 43
0.0000001
 44
0.0000000001
 40
0.0
 40
0.0
 40
0.0
 40
0.0
 40
0.4996691909
 40
0.7497839024
 40
0.8748919904
 40
1.0
 40
1.0
 40
1.0
 40
1.0
 10
567.5316087578
 20
553.429387178
 30
0.0
 10
558.0921544979
 20
553.4260289221
 30
0.0
 10
543.8700989023
 20
552.0911087729
 30
0.0
 10
527.8287881031
 20
547.9863331537
 30
0.0
 10
518.9204216704
 20
544.8071337462
 30
0.0
 10
514.5854098659
 20
542.9112429073
 30
0.0
 10
512.4536028287
 20
541.8907661596
 30
0.0
  0
SPLINE
  5
4A5
100
AcDbEntity
  8
ALL_FEATURES
100
AcDbSpline
 62
7
  6
CONTINUOUS
 70
0
 71
3
 72
9
 73
5
 74
0
 42
0.0000001
 43
0.0000001
 44
0.0000000001
 40
0.0
 40
0.0
 40
0.0
 40
0.0
 40
0.4999375521
 40
1.0
 40
1.0
 40
1.0
 40
1.0
 10
622.6343317618
 20
542.5038200327
 30
0.0
 10
617.5429265336
 20
544.9408102505
 30
0.0
 10
606.9292046162
 20
548.9502271028
 30
0.0
 10
595.869341297
 20
551.3840392522
 30
0.0
 10
590.2933737115
 20
552.2705128121
 30
0.0
  0
SPLINE
  5
4A6
100
AcDbEntity
  8
ALL_FEATURES
100
AcDbSpline
 62
7
  6
CONTINUOUS
 70
0
 71
3
 72
9
 73
5
 74
0
 42
0.0000001
 43
0.0000001
 44
0.0000000001
 40
0.0
 40
0.0
 40
0.0
 40
0.0
 40
0.4999376186
 40
1.0
 40
1.0
 40
1.0
 40
1.0
 10
512.4288857537
 20
542.5038200327
 30
0.0
 10
517.5187674823
 20
544.9400810306
 30
0.0
 10
528.1291778398
 20
548.9485693751
 30
0.0
 10
539.185573259
 20
551.3823000528
 30
0.0
 10
544.759805813
 20
552.2689172039
 30
0.0
  0
SPLINE
  5
4A7
100
AcDbEntity
  8
ALL_FEATURES
100
AcDbSpline
 62
7
  6
CONTINUOUS
 70
0
 71
3
 72
11
 73
7
 74
0
 42
0.0000001
 43
0.0000001
 44
0.0000000001
 40
0.0
 40
0.0
 40
0.0
 40
0.0
 40
0.2316605517
 40
0.4812930936
 40
0.7393628751
 40
1.0
 40
1.0
 40
1.0
 40
1.0
 10
654.0821056049
 20
501.9545870774
 30
0.0
 10
654.1656913645
 20
505.7281379691
 30
0.0
 10
652.7908132099
 20
513.655963909
 30
0.0
 10
646.7832961326
 20
524.3073232479
 30
0.0
 10
637.9060125186
 20
533.2870325679
 30
0.0
 10
630.8630214444
 20
538.040791317
 30
0.0
 10
627.1773094135
 20
540.1500807599
 30
0.0
  0
LINE
  5
4A8
100
AcDbEntity
  8
ALL_FEATURES
100
AcDbLine
 62
7
  6
CONTINUOUS
 10
626.4504457084
 20
540.5566394424
 11
626.3973885191
 21
540.5853146246
  0
LINE
  5
4A9
100
AcDbEntity
  8
ALL_CURVES
100
AcDbLine
 62
7
  6
CONTINUOUS
 10
508.6127718071
 20
540.5566394424
 11
508.6658289965
 21
540.5853146246
  0
SPLINE
  5
4AA
100
AcDbEntity
  8
ALL_CURVES
100
AcDbSpline
 62
7
  6
CONTINUOUS
 70
0
 71
3
 72
11
 73
7
 74
0
 42
0.0000001
 43
0.0000001
 44
0.0000000001
 40
0.0
 40
0.0
 40
0.0
 40
0.0
 40
0.2316606563
 40
0.4812920493
 40
0.7393617949
 40
1.0
 40
1.0
 40
1.0
 40
1.0
 10
480.9811119106
 20
501.9545870774
 30
0.0
 10
480.8975397868
 20
505.7275223681
 30
0.0
 10
482.2719269345
 20
513.6540154331
 30
0.0
 10
488.2776017385
 20
524.3040577896
 30
0.0
 10
497.1526039975
 20
533.2831041146
 30
0.0
 10
504.1939859753
 20
538.0367962749
 30
0.0
 10
507.878920361
 20
540.1460813406
 30
0.0
  0
SPLINE
  5
4AB
100
AcDbEntity
  8
ALL_FEATURES
100
AcDbSpline
 62
7
  6
CONTINUOUS
 70
0
 71
3
 72
8
 73
4
 74
0
 42
0.0000001
 43
0.0000001
 44
0.0000000001
 40
0.0
 40
0.0
 40
0.0
 40
0.0
 40
1.0
 40
1.0
 40
1.0
 40
1.0
 10
664.0627579008
 20
504.7739623872
 30
0.0
 10
664.2433020695
 20
504.5589514622
 30
0.0
 10
664.3926807462
 20
504.3127342343
 30
0.0
 10
664.4961281793
 20
504.0517274847
 30
0.0
  0
SPLINE
  5
4AC
100
AcDbEntity
  8
ALL_FEATURES
100
AcDbSpline
 62
7
  6
CONTINUOUS
 70
0
 71
3
 72
9
 73
5
 74
0
 42
0.0000001
 43
0.0000001
 44
0.0000000001
 40
0.0
 40
0.0
 40
0.0
 40
0.0
 40
0.5038361435
 40
1.0
 40
1.0
 40
1.0
 40
1.0
 10
657.2446840702
 20
540.020441696
 30
0.0
 10
658.3795730895
 20
536.8017342734
 30
0.0
 10
660.4960859261
 20
530.3645025834
 30
0.0
 10
662.2133307227
 20
523.8029230857
 30
0.0
 10
662.9027870958
 20
520.5134467681
 30
0.0
  0
LINE
  5
4AD
100
AcDbEntity
  8
ALL_FEATURES
100
AcDbLine
 62
7
  6
CONTINUOUS
 10
622.4972849713
 20
596.0726155255
 11
622.4972707522
 21
595.4181242042
  0
LINE
  5
4AE
100
AcDbEntity
  8
ALL_FEATURES
100
AcDbLine
 62
7
  6
CONTINUOUS
 10
622.497315253
 20
596.0726474588
 11
622.5656352936
 21
596.0079097531
  0
SPLINE
  5
4AF
100
AcDbEntity
  8
ALL_FEATURES
100
AcDbSpline
 62
7
  6
CONTINUOUS
 70
0
 71
3
 72
9
 73
5
 74
0
 42
0.0000001
 43
0.0000001
 44
0.0000000001
 40
0.0
 40
0.0
 40
0.0
 40
0.0
 40
0.2408303949
 40
1.0
 40
1.0
 40
1.0
 40
1.0
 10
624.1360580917
 20
594.4930277061
 30
0.0
 10
625.0597460482
 20
593.5861483124
 30
0.0
 10
628.8343750965
 20
589.7587205279
 30
0.0
 10
632.3199359305
 20
585.6492104792
 30
0.0
 10
634.8097534274
 20
582.4163277259
 30
0.0
  0
LINE
  5
4B0
100
AcDbEntity
  8
ALL_FEATURES
100
AcDbLine
 62
7
  6
CONTINUOUS
 10
657.0170099323
 20
540.6632904113
 11
657.0415342799
 21
540.5943200261
  0
LINE
  5
4B1
100
AcDbEntity
  8
ALL_FEATURES
100
AcDbLine
 62
7
  6
CONTINUOUS
 10
512.5659467409
 20
595.4186170002
 11
512.5659325442
 21
596.0726155255
  0
LINE
  5
4B2
100
AcDbEntity
  8
ALL_FEATURES
100
AcDbLine
 62
7
  6
CONTINUOUS
 10
478.0216832356
 20
540.594320026
 11
478.0636424761
 21
540.7122778163
  0
LINE
  5
4B3
100
AcDbEntity
  8
ALL_FEATURES
100
AcDbLine
 62
7
  6
CONTINUOUS
 10
478.2745888282
 20
541.3020627123
 11
478.2950768018
 21
541.3590606849
  0
SPLINE
  5
4B4
100
AcDbEntity
  8
ALL_FEATURES
100
AcDbSpline
 62
7
  6
CONTINUOUS
 70
0
 71
3
 72
9
 73
5
 74
0
 42
0.0000001
 43
0.0000001
 44
0.0000000001
 40
0.0
 40
0.0
 40
0.0
 40
0.0
 40
0.3026166303
 40
1.0
 40
1.0
 40
1.0
 40
1.0
 10
478.2950768018
 20
541.3590606849
 30
0.0
 10
479.02647072
 20
543.3927275696
 30
0.0
 10
481.5650874755
 20
550.0687769575
 30
0.0
 10
484.5127892948
 20
556.5881138832
 30
0.0
 10
486.7806605735
 20
561.0222971265
 30
0.0
  0
SPLINE
  5
4B5
100
AcDbEntity
  8
ALL_FEATURES
100
AcDbSpline
 62
7
  6
CONTINUOUS
 70
0
 71
3
 72
9
 73
5
 74
0
 42
0.0000001
 43
0.0000001
 44
0.0000000001
 40
0.0
 40
0.0
 40
0.0
 40
0.0
 40
0.6562606189
 40
1.0
 40
1.0
 40
1.0
 40
1.0
 10
470.4959756209
 20
503.846292207
 30
0.0
 10
470.4770729891
 20
503.9778028883
 30
0.0
 10
470.4703961061
 20
504.0485847717
 30
0.0
 10
470.4034797412
 20
504.5153736765
 30
0.0
 10
470.4007292948
 20
504.4458368317
 30
0.0
  0
SPLINE
  5
4B6
100
AcDbEntity
  8
ALL_FEATURES
100
AcDbSpline
 62
7
  6
CONTINUOUS
 70
0
 71
3
 72
9
 73
5
 74
0
 42
0.0000001
 43
0.0000001
 44
0.0000000001
 40
0.0
 40
0.0
 40
0.0
 40
0.0
 40
0.3434760506
 40
1.0
 40
1.0
 40
1.0
 40
1.0
 10
664.6624935629
 20
504.4456236235
 30
0.0
 10
664.6597629606
 20
504.5150865711
 30
0.0
 10
664.5927669162
 20
504.0485068148
 30
0.0
 10
664.5861531339
 20
503.9777918773
 30
0.0
 10
664.5672488645
 20
503.8462687213
 30
0.0
  0
SPLINE
  5
4B7
100
AcDbEntity
  8
ALL_FEATURES
100
AcDbSpline
 62
7
  6
CONTINUOUS
 70
0
 71
3
 72
9
 73
5
 74
0
 42
0.0000001
 43
0.0000001
 44
0.0000000001
 40
0.0
 40
0.0
 40
0.0
 40
0.0
 40
0.539999208
 40
1.0
 40
1.0
 40
1.0
 40
1.0
 10
477.927322002
 20
540.5955131418
 30
0.0
 10
476.5095217752
 20
536.648562596
 30
0.0
 10
474.1159152876
 20
529.2523614836
 30
0.0
 10
472.3326529172
 20
521.6802699228
 30
0.0
 10
471.7046842653
 20
518.1633231287
 30
0.0
  0
SPLINE
  5
4B8
100
AcDbEntity
  8
ALL_FEATURES
100
AcDbSpline
 62
7
  6
CONTINUOUS
 70
0
 71
3
 72
8
 73
4
 74
0
 42
0.0000001
 43
0.0000001
 44
0.0000000001
 40
0.0
 40
0.0
 40
0.0
 40
0.0
 40
1.0
 40
1.0
 40
1.0
 40
1.0
 10
664.6559589697
 20
503.3942330267
 30
0.0
 10
664.6435920794
 20
503.5095773023
 30
0.0
 10
664.6150620294
 20
503.624122576
 30
0.0
 10
664.5728818257
 20
503.7321877059
 30
0.0
  0
SPLINE
  5
4B9
100
AcDbEntity
  8
ALL_FEATURES
100
AcDbSpline
 62
7
  6
CONTINUOUS
 70
0
 71
3
 72
9
 73
5
 74
0
 42
0.0000001
 43
0.0000001
 44
0.0000000001
 40
0.0
 40
0.0
 40
0.0
 40
0.0
 40
0.2381731988
 40
1.0
 40
1.0
 40
1.0
 40
1.0
 10
664.5728818257
 20
503.7321877059
 30
0.0
 10
664.5485510459
 20
503.7945228452
 30
0.0
 10
664.4272738953
 20
504.0488092687
 30
0.0
 10
664.2350724496
 20
504.2655327158
 30
0.0
 10
664.0706464676
 20
504.4025579317
 30
0.0
  0
SPLINE
  5
4BA
100
AcDbEntity
  8
ALL_FEATURES
100
AcDbSpline
 62
7
  6
CONTINUOUS
 70
0
 71
3
 72
8
 73
4
 74
0
 42
0.0000001
 43
0.0000001
 44
0.0000000001
 40
0.0
 40
0.0
 40
0.0
 40
0.0
 40
1.0
 40
1.0
 40
1.0
 40
1.0
 10
470.4072707502
 20
503.3943468069
 30
0.0
 10
470.4196439674
 20
503.5096523858
 30
0.0
 10
470.4481692308
 20
503.6241577899
 30
0.0
 10
470.4903356898
 20
503.7321877059
 30
0.0
  0
SPLINE
  5
4BB
100
AcDbEntity
  8
ALL_FEATURES
100
AcDbSpline
 62
7
  6
CONTINUOUS
 70
0
 71
3
 72
9
 73
5
 74
0
 42
0.0000001
 43
0.0000001
 44
0.0000000001
 40
0.0
 40
0.0
 40
0.0
 40
0.0
 40
0.2381734374
 40
1.0
 40
1.0
 40
1.0
 40
1.0
 10
470.4903356898
 20
503.7321877059
 30
0.0
 10
470.5146660331
 20
503.7945217268
 30
0.0
 10
470.6359405405
 20
504.0488034619
 30
0.0
 10
470.8281368672
 20
504.2655237757
 30
0.0
 10
470.9925586465
 20
504.4025475969
 30
0.0
  0
SPLINE
  5
4BC
100
AcDbEntity
  8
ALL_FEATURES
100
AcDbSpline
 62
7
  6
CONTINUOUS
 70
0
 71
3
 72
9
 73
5
 74
0
 42
0.0000001
 43
0.0000001
 44
0.0000000001
 40
0.0
 40
0.0
 40
0.0
 40
0.0
 40
0.2457333542
 40
1.0
 40
1.0
 40
1.0
 40
1.0
 10
470.4007292948
 20
504.4458368317
 30
0.0
 10
470.4012140936
 20
505.0222007289
 30
0.0
 10
470.4347426399
 20
507.3676120825
 30
0.0
 10
470.5902393516
 20
509.7107986145
 30
0.0
 10
470.7661974375
 20
511.4711481406
 30
0.0
  0
SPLINE
  5
4BD
100
AcDbEntity
  8
ALL_FEATURES
100
AcDbSpline
 62
7
  6
CONTINUOUS
 70
0
 71
3
 72
9
 73
5
 74
0
 42
0.0000001
 43
0.0000001
 44
0.0000000001
 40
0.0
 40
0.0
 40
0.0
 40
0.0
 40
0.4764240973
 40
1.0
 40
1.0
 40
1.0
 40
1.0
 10
482.5316087578
 20
502.8469151596
 30
0.0
 10
482.5316087578
 20
505.7895648076
 30
0.0
 10
483.5283334625
 20
511.9984121185
 30
0.0
 10
486.3258103293
 20
517.6083640437
 30
0.0
 10
488.1100236116
 20
520.3055090405
 30
0.0
  0
SPLINE
  5
4BE
100
AcDbEntity
  8
ALL_FEATURES
100
AcDbSpline
 62
7
  6
CONTINUOUS
 70
0
 71
3
 72
9
 73
5
 74
0
 42
0.0000001
 43
0.0000001
 44
0.0000000001
 40
0.0
 40
0.0
 40
0.0
 40
0.0
 40
0.2415451496
 40
1.0
 40
1.0
 40
1.0
 40
1.0
 10
483.5273220888
 20
494.0726475248
 30
0.0
 10
483.3695847437
 20
494.766751115
 30
0.0
 10
482.7906551671
 20
497.6565059233
 30
0.0
 10
482.5316087578
 20
500.6118504995
 30
0.0
 10
482.5316087578
 20
502.8469151596
 30
0.0
  0
SPLINE
  5
4BF
100
AcDbEntity
  8
ALL_FEATURES
100
AcDbSpline
 62
7
  6
CONTINUOUS
 70
0
 71
3
 72
9
 73
5
 74
0
 42
0.0000001
 43
0.0000001
 44
0.0000000001
 40
0.0
 40
0.0
 40
0.0
 40
0.0
 40
0.2589717778
 40
1.0
 40
1.0
 40
1.0
 40
1.0
 10
652.5316087578
 20
502.8469151596
 30
0.0
 10
652.5316087578
 20
502.0836987523
 30
0.0
 10
652.4441534616
 20
499.1369920585
 30
0.0
 10
652.0198275379
 20
496.2022382165
 30
0.0
 10
651.5358990661
 20
494.0726438265
 30
0.0
  0
SPLINE
  5
4C0
100
AcDbEntity
  8
ALL_FEATURES
100
AcDbSpline
 62
7
  6
CONTINUOUS
 70
0
 71
3
 72
9
 73
5
 74
0
 42
0.0000001
 43
0.0000001
 44
0.0000000001
 40
0.0
 40
0.0
 40
0.0
 40
0.0
 40
0.3043572774
 40
1.0
 40
1.0
 40
1.0
 40
1.0
 10
477.9273194927
 20
540.5955141325
 30
0.0
 10
478.6912207023
 20
542.7221022613
 30
0.0
 10
481.3330904628
 20
549.6613881389
 30
0.0
 10
484.4140688504
 20
556.4317877547
 30
0.0
 10
486.7800053152
 20
561.0226265846
 30
0.0
  0
SPLINE
  5
4C1
100
AcDbEntity
  8
ALL_FEATURES
100
AcDbSpline
 62
7
  6
CONTINUOUS
 70
0
 71
3
 72
9
 73
5
 74
0
 42
0.0000001
 43
0.0000001
 44
0.0000000001
 40
0.0
 40
0.0
 40
0.0
 40
0.0
 40
0.2541741334
 40
1.0
 40
1.0
 40
1.0
 40
1.0
 10
664.2972746577
 20
511.4686273709
 30
0.0
 10
664.3565485932
 20
510.8756234969
 30
0.0
 10
664.5634030689
 20
508.5400646308
 30
0.0
 10
664.6610255917
 20
506.1943515143
 30
0.0
 10
664.6624935629
 20
504.4456236235
 30
0.0
  0
LINE
  5
4C2
100
AcDbEntity
  8
ALL_FEATURES
100
AcDbLine
 62
7
  6
CONTINUOUS
 10
482.985276289
 20
493.5193164315
 11
482.743926226
 21
493.2705829581
  0
SPLINE
  5
4C3
100
AcDbEntity
  8
ALL_FEATURES
100
AcDbSpline
 62
7
  6
CONTINUOUS
 70
0
 71
3
 72
9
 73
5
 74
0
 42
0.0000001
 43
0.0000001
 44
0.0000000001
 40
0.0
 40
0.0
 40
0.0
 40
0.0
 40
0.5232405238
 40
1.0
 40
1.0
 40
1.0
 40
1.0
 10
646.9671705108
 20
520.2843669585
 30
0.0
 10
648.7460929367
 20
517.5914586098
 30
0.0
 10
651.5368986761
 20
511.9880624206
 30
0.0
 10
652.5316087578
 20
505.7876449872
 30
0.0
 10
652.5316087578
 20
502.8469151596
 30
0.0
  0
SPLINE
  5
4C4
100
AcDbEntity
  8
ALL_FEATURES
100
AcDbSpline
 62
7
  6
CONTINUOUS
 70
0
 71
3
 72
9
 73
5
 74
0
 42
0.0000001
 43
0.0000001
 44
0.0000000001
 40
0.0
 40
0.0
 40
0.0
 40
0.0
 40
0.539999206
 40
1.0
 40
1.0
 40
1.0
 40
1.0
 10
657.1358955617
 20
540.5955131594
 30
0.0
 10
658.5536957748
 20
536.6485626801
 30
0.0
 10
660.9473022252
 20
529.252361656
 30
0.0
 10
662.7305645498
 20
521.6802701848
 30
0.0
 10
663.3585331982
 20
518.16332342
 30
0.0
  0
SPLINE
  5
4C5
100
AcDbEntity
  8
ALL_FEATURES
100
AcDbSpline
 62
7
  6
CONTINUOUS
 70
0
 71
3
 72
9
 73
5
 74
0
 42
0.0000001
 43
0.0000001
 44
0.0000000001
 40
0.0
 40
0.0
 40
0.0
 40
0.0
 40
0.203309878
 40
1.0
 40
1.0
 40
1.0
 40
1.0
 10
648.2832122023
 20
561.0226265807
 30
0.0
 10
648.9746276511
 20
559.6810111426
 30
0.0
 10
652.2855888752
 20
553.0363009738
 30
0.0
 10
655.1364657171
 20
546.1616383556
 30
0.0
 10
657.1358980353
 20
540.5955141369
 30
0.0
  0
SPLINE
  5
4C6
100
AcDbEntity
  8
ALL_FEATURES
100
AcDbSpline
 62
7
  6
CONTINUOUS
 70
0
 71
3
 72
9
 73
5
 74
0
 42
0.0000001
 43
0.0000001
 44
0.0000000001
 40
0.0
 40
0.0
 40
0.0
 40
0.0
 40
0.2043684126
 40
1.0
 40
1.0
 40
1.0
 40
1.0
 10
648.3682954573
 20
560.8544102767
 30
0.0
 10
649.0254584567
 20
559.565690082
 30
0.0
 10
652.1578581228
 20
553.2177672039
 30
0.0
 10
654.8622461722
 20
546.6584772872
 30
0.0
 10
656.7681714683
 20
541.3589757067
 30
0.0
  0
LINE
  5
4C7
100
AcDbEntity
  8
ALL_FEATURES
100
AcDbLine
 62
7
  6
CONTINUOUS
 10
656.7681714683
 20
541.3589757067
 11
656.7886288578
 21
541.3020627759
  0
SPLINE
  5
4C8
100
AcDbEntity
  8
ALL_FEATURES
100
AcDbSpline
 62
7
  6
CONTINUOUS
 70
0
 71
3
 72
9
 73
5
 74
0
 42
0.0000001
 43
0.0000001
 44
0.0000000001
 40
0.0
 40
0.0
 40
0.0
 40
0.0
 40
0.4961435417
 40
1.0
 40
1.0
 40
1.0
 40
1.0
 10
472.16046674
 20
520.5134121735
 30
0.0
 10
472.849768016
 20
523.8023612468
 30
0.0
 10
474.5659708535
 20
530.3633678703
 30
0.0
 10
476.682974924
 20
536.7995817117
 30
0.0
 10
477.8176954454
 20
540.0180527046
 30
0.0
  0
SPLINE
  5
4C9
100
AcDbEntity
  8
ALL_FEATURES
100
AcDbSpline
 62
7
  6
CONTINUOUS
 70
0
 71
3
 72
9
 73
5
 74
0
 42
0.0000001
 43
0.0000001
 44
0.0000000001
 40
0.0
 40
0.0
 40
0.0
 40
0.0
 40
0.5106122176
 40
1.0
 40
1.0
 40
1.0
 40
1.0
 10
499.7890103773
 20
581.8077753382
 30
0.0
 10
501.541470972
 20
584.1245611579
 30
0.0
 10
505.1218867412
 20
588.5525806694
 30
0.0
 10
509.0188684543
 20
592.7051799936
 30
0.0
 10
510.9952540144
 20
594.6661912532
 30
0.0
  0
SPLINE
  5
4CA
100
AcDbEntity
  8
ALL_FEATURES
100
AcDbSpline
 62
7
  6
CONTINUOUS
 70
0
 71
3
 72
9
 73
5
 74
0
 42
0.0000001
 43
0.0000001
 44
0.0000000001
 40
0.0
 40
0.0
 40
0.0
 40
0.0
 40
0.2557985476
 40
1.0
 40
1.0
 40
1.0
 40
1.0
 10
500.2534641131
 20
582.4163277582
 30
0.0
 10
501.0933206614
 20
583.5068324715
 30
0.0
 10
504.4446340204
 20
587.7169711683
 30
0.0
 10
508.0821173864
 20
591.7005949732
 30
0.0
 10
510.9400146068
 20
594.5056468571
 30
0.0
  0
LINE
  5
4CB
100
AcDbEntity
  8
ALL_FEATURES
100
AcDbLine
 62
7
  6
CONTINUOUS
 10
510.9400146068
 20
594.5056468571
 11
511.0541270504
 21
594.6175010339
  0
LINE
  5
4CC
100
AcDbEntity
  8
ALL_FEATURES
100
AcDbLine
 62
7
  6
CONTINUOUS
 10
512.4975590976
 20
596.0078875711
 11
512.5659023906
 21
596.0726473238
  0
LINE
  5
4CD
100
AcDbEntity
  8
ALL_FEATURES
100
AcDbLine
 62
7
  6
CONTINUOUS
 10
652.3192912895
 20
493.2705829581
 11
652.0779412265
 21
493.5193164315
  0
LINE
  5
4CE
100
AcDbEntity
  8
ALL_FEATURES
100
AcDbLine
 62
7
  6
CONTINUOUS
 10
651.8924870912
 20
492.9118026911
 11
651.9405056275
 21
492.951376306
  0
SPLINE
  5
4CF
100
AcDbEntity
  8
ALL_FEATURES
100
AcDbSpline
 62
7
  6
CONTINUOUS
 70
0
 71
3
 72
9
 73
5
 74
0
 42
0.0000001
 43
0.0000001
 44
0.0000000001
 40
0.0
 40
0.0
 40
0.0
 40
0.0
 40
0.2407348317
 40
1.0
 40
1.0
 40
1.0
 40
1.0
 10
624.1940215717
 20
594.5409360301
 30
0.0
 10
625.1546027077
 20
593.5851131422
 30
0.0
 10
629.0798745916
 20
589.5495608709
 30
0.0
 10
632.6958644244
 20
585.2163928329
 30
0.0
 10
635.2742071324
 20
581.8077753459
 30
0.0
  0
LINE
  5
4D0
100
AcDbEntity
  8
ALL_FEATURES
100
AcDbLine
 62
7
  6
CONTINUOUS
 10
652.3192899277
 20
493.2705785746
 11
653.1002694912
 21
493.2626704579
  0
SPLINE
  5
4D1
100
AcDbEntity
  8
ALL_FEATURES
100
AcDbSpline
 62
7
  6
CONTINUOUS
 70
0
 71
3
 72
11
 73
7
 74
0
 42
0.0000001
 43
0.0000001
 44
0.0000000001
 40
0.0
 40
0.0
 40
0.0
 40
0.0
 40
0.2301053437
 40
0.4795682669
 40
0.7383126343
 40
1.0
 40
1.0
 40
1.0
 40
1.0
 10
653.990228352
 20
501.0957554877
 30
0.0
 10
654.07835252
 20
504.8979153638
 30
0.0
 10
652.7208844563
 20
512.9135994957
 30
0.0
 10
646.6626257395
 20
523.7232804633
 30
0.0
 10
637.6367311694
 20
532.8530896947
 30
0.0
 10
630.4490780249
 20
537.6650855407
 30
0.0
 10
626.6869807093
 20
539.799027295
 30
0.0
  0
SPLINE
  5
4D2
100
AcDbEntity
  8
ALL_FEATURES
100
AcDbSpline
 62
7
  6
CONTINUOUS
 70
0
 71
3
 72
11
 73
7
 74
0
 42
0.0000001
 43
0.0000001
 44
0.0000000001
 40
0.0
 40
0.0
 40
0.0
 40
0.0
 40
0.1251080646
 40
0.2502162768
 40
0.5003310998
 40
1.0
 40
1.0
 40
1.0
 40
1.0
 10
622.6096146868
 20
541.8907661596
 30
0.0
 10
620.4778067189
 20
542.9112433529
 30
0.0
 10
616.1427926892
 20
544.8071377394
 30
0.0
 10
607.2344181386
 20
547.986330892
 30
0.0
 10
591.1931106518
 20
552.0911115249
 30
0.0
 10
576.971057497
 20
553.4260349692
 30
0.0
 10
567.5316087578
 20
553.429387178
 30
0.0
  0
SPLINE
  5
4D3
100
AcDbEntity
  8
ALL_FEATURES
100
AcDbSpline
 62
3
  6
CONTINUOUS
 70
0
 71
3
 72
11
 73
7
 74
0
 42
0.0000001
 43
0.0000001
 44
0.0000000001
 40
0.0
 40
0.0
 40
0.0
 40
0.0
 40
0.2296218459
 40
0.4317275607
 40
0.6702133389
 40
1.0
 40
1.0
 40
1.0
 40
1.0
 10
612.3870319566
 20
597.0726155255
 30
0.0
 10
612.2859136986
 20
597.0726155255
 30
0.0
 10
612.0931713302
 20
597.066523126
 30
0.0
 10
611.8185315018
 20
596.9172792065
 30
0.0
 10
611.6776355117
 20
596.589447528
 30
0.0
 10
611.6601759028
 20
596.3391635697
 30
0.0
 10
611.6601759028
 20
596.1939358691
 30
0.0
  0
SPLINE
  5
4D4
100
AcDbEntity
  8
ALL_FEATURES
100
AcDbSpline
 62
3
  6
CONTINUOUS
 70
0
 71
3
 72
11
 73
7
 74
0
 42
0.0000001
 43
0.0000001
 44
0.0000000001
 40
0.0
 40
0.0
 40
0.0
 40
0.0
 40
0.2296218459
 40
0.4317275607
 40
0.6702133389
 40
1.0
 40
1.0
 40
1.0
 40
1.0
 10
522.6761855589
 20
597.0726155255
 30
0.0
 10
522.7773038169
 20
597.0726155255
 30
0.0
 10
522.9700461854
 20
597.066523126
 30
0.0
 10
523.2446860137
 20
596.9172792065
 30
0.0
 10
523.3855820038
 20
596.589447528
 30
0.0
 10
523.4030416127
 20
596.3391635697
 30
0.0
 10
523.4030416127
 20
596.1939358691
 30
0.0
  0
LINE
  5
4D5
100
AcDbEntity
  8
ALL_FEATURES
100
AcDbLine
 62
7
  6
CONTINUOUS
 10
767.6421753718
 20
728.5563267956
 11
767.7852672219
 21
728.5567715698
  0
LINE
  5
4D6
100
AcDbEntity
  8
ALL_FEATURES
100
AcDbLine
 62
7
  6
CONTINUOUS
 10
767.7852672219
 20
728.5567715698
 11
767.8567230753
 21
728.5570898522
  0
LINE
  5
4D7
100
AcDbEntity
  8
ALL_FEATURES
100
AcDbLine
 62
7
  6
CONTINUOUS
 10
768.2131015021
 20
728.5596367168
 11
768.2841966354
 21
728.5603365625
  0
SPLINE
  5
4D8
100
AcDbEntity
  8
ALL_FEATURES
100
AcDbSpline
 62
7
  6
CONTINUOUS
 70
0
 71
3
 72
11
 73
7
 74
0
 42
0.0000001
 43
0.0000001
 44
0.0000000001
 40
0.0
 40
0.0
 40
0.0
 40
0.0
 40
0.2807589617
 40
0.5377710623
 40
0.7814620393
 40
1.0
 40
1.0
 40
1.0
 40
1.0
 10
805.4666470265
 20
739.9355775913
 30
0.0
 10
802.3413953501
 20
737.9792449011
 30
0.0
 10
796.0495303186
 20
734.6994359967
 30
0.0
 10
786.3496552495
 20
731.2689229217
 30
0.0
 10
777.1106082173
 20
729.2087635887
 30
0.0
 10
771.047250023
 20
728.6162484613
 30
0.0
 10
768.1777863895
 20
728.5635870208
 30
0.0
  0
LINE
  5
4D9
100
AcDbEntity
  8
ALL_FEATURES
100
AcDbLine
 62
7
  6
CONTINUOUS
 10
815.2744219231
 20
747.2044018199
 11
815.2680969355
 21
747.3341127859
  0
LINE
  5
4DA
100
AcDbEntity
  8
ALL_FEATURES
100
AcDbLine
 62
7
  6
CONTINUOUS
 10
815.2680969355
 20
747.3341127859
 11
815.2617693623
 21
747.4637499721
  0
LINE
  5
4DB
100
AcDbEntity
  8
ALL_FEATURES
100
AcDbLine
 62
7
  6
CONTINUOUS
 10
815.2617693623
 20
747.4637499721
 11
815.2575539805
 21
747.5501309907
  0
LINE
  5
4DC
100
AcDbEntity
  8
ALL_FEATURES
100
AcDbLine
 62
7
  6
CONTINUOUS
 10
815.2575539805
 20
747.5501309907
 11
815.2554481764
 21
747.5933079199
  0
SPLINE
  5
4DD
100
AcDbEntity
  8
ALL_FEATURES
100
AcDbSpline
 62
7
  6
CONTINUOUS
 70
0
 71
3
 72
9
 73
5
 74
0
 42
0.0000001
 43
0.0000001
 44
0.0000000001
 40
0.0
 40
0.0
 40
0.0
 40
0.0
 40
0.4989409268
 40
1.0
 40
1.0
 40
1.0
 40
1.0
 10
844.3301712458
 20
785.5001483109
 30
0.0
 10
848.3356969564
 20
788.2067941271
 30
0.0
 10
856.6387255084
 20
793.2411775902
 30
0.0
 10
865.4847863277
 20
797.2622922946
 30
0.0
 10
870.0200254222
 20
798.9945224682
 30
0.0
  0
SPLINE
  5
4DE
100
AcDbEntity
  8
ALL_FEATURES
100
AcDbSpline
 62
7
  6
CONTINUOUS
 70
0
 71
3
 72
8
 73
4
 74
0
 42
0.0000001
 43
0.0000001
 44
0.0000000001
 40
0.0
 40
0.0
 40
0.0
 40
0.0
 40
1.0
 40
1.0
 40
1.0
 40
1.0
 10
825.8487446288
 20
759.2736604047
 30
0.0
 10
825.8125007011
 20
759.248004474
 30
0.0
 10
825.7800750122
 20
759.2162203612
 30
0.0
 10
825.7530391141
 20
759.1809938188
 30
0.0
  0
SPLINE
  5
4DF
100
AcDbEntity
  8
ALL_FEATURES
100
AcDbSpline
 62
7
  6
CONTINUOUS
 70
0
 71
3
 72
8
 73
4
 74
0
 42
0.0000001
 43
0.0000001
 44
0.0000000001
 40
0.0
 40
0.0
 40
0.0
 40
0.0
 40
1.0
 40
1.0
 40
1.0
 40
1.0
 10
825.7530391141
 20
759.1809938188
 30
0.0
 10
825.7368180737
 20
759.1598585429
 30
0.0
 10
825.7223244085
 20
759.1373078451
 30
0.0
 10
825.7096067154
 20
759.1138966872
 30
0.0
  0
SPLINE
  5
4E0
100
AcDbEntity
  8
ALL_FEATURES
100
AcDbSpline
 62
7
  6
CONTINUOUS
 70
0
 71
3
 72
9
 73
5
 74
0
 42
0.0000001
 43
0.0000001
 44
0.0000000001
 40
0.0
 40
0.0
 40
0.0
 40
0.0
 40
0.2528336672
 40
1.0
 40
1.0
 40
1.0
 40
1.0
 10
823.7522700981
 20
752.321145233
 30
0.0
 10
824.1893717687
 20
752.7662680927
 30
0.0
 10
825.918462234
 20
754.5265301663
 30
0.0
 10
827.6486383527
 20
756.2857257705
 30
0.0
 10
828.9419459874
 20
757.5995680174
 30
0.0
  0
LINE
  5
4E1
100
AcDbEntity
  8
ALL_FEATURES
100
AcDbLine
 62
7
  6
CONTINUOUS
 10
828.9419459874
 20
757.5995680174
 11
829.6342211617
 21
758.3027245788
  0
LINE
  5
4E2
100
AcDbEntity
  8
ALL_FEATURES
100
AcDbLine
 62
7
  6
CONTINUOUS
 10
829.6342211617
 20
758.3027245788
 11
829.807842065
 21
758.4790400291
  0
LINE
  5
4E3
100
AcDbEntity
  8
ALL_FEATURES
100
AcDbLine
 62
7
  6
CONTINUOUS
 10
829.807842065
 20
758.4790400291
 11
830.648090008
 21
759.3321342736
  0
LINE
  5
4E4
100
AcDbEntity
  8
ALL_FEATURES
100
AcDbLine
 62
7
  6
CONTINUOUS
 10
830.648090008
 20
759.3321342736
 11
830.6747917783
 21
759.3592390253
  0
LINE
  5
4E5
100
AcDbEntity
  8
ALL_FEATURES
100
AcDbLine
 62
7
  6
CONTINUOUS
 10
830.6747917783
 20
759.3592390253
 11
831.4866442837
 21
760.1831903981
  0
LINE
  5
4E6
100
AcDbEntity
  8
ALL_FEATURES
100
AcDbLine
 62
7
  6
CONTINUOUS
 10
831.4866442837
 20
760.1831903981
 11
831.7072473211
 21
760.4070298587
  0
LINE
  5
4E7
100
AcDbEntity
  8
ALL_FEATURES
100
AcDbLine
 62
7
  6
CONTINUOUS
 10
831.7072473211
 20
760.4070298587
 11
832.4173920453
 21
761.1274453799
  0
LINE
  5
4E8
100
AcDbEntity
  8
ALL_FEATURES
100
AcDbLine
 62
7
  6
CONTINUOUS
 10
832.4173920453
 20
761.1274453799
 11
833.4901295511
 21
762.2152737358
  0
LINE
  5
4E9
100
AcDbEntity
  8
ALL_FEATURES
100
AcDbLine
 62
7
  6
CONTINUOUS
 10
861.0100609073
 20
789.9652465512
 11
862.1750961262
 21
791.1342537806
  0
LINE
  5
4EA
100
AcDbEntity
  8
ALL_FEATURES
100
AcDbLine
 62
7
  6
CONTINUOUS
 10
862.1750961262
 20
791.1342537806
 11
866.8220621909
 21
795.7921271521
  0
LINE
  5
4EB
100
AcDbEntity
  8
ALL_FEATURES
100
AcDbLine
 62
7
  6
CONTINUOUS
 10
866.8220621909
 20
795.7921271521
 11
870.0199411168
 21
798.9947531892
  0
SPLINE
  5
4EC
100
AcDbEntity
  8
ALL_FEATURES
100
AcDbSpline
 62
7
  6
CONTINUOUS
 70
0
 71
3
 72
9
 73
5
 74
0
 42
0.0000001
 43
0.0000001
 44
0.0000000001
 40
0.0
 40
0.0
 40
0.0
 40
0.0
 40
0.239837246
 40
1.0
 40
1.0
 40
1.0
 40
1.0
 10
814.3998874975
 20
746.9160966844
 30
0.0
 10
814.4192694818
 20
746.9411347969
 30
0.0
 10
814.5027654201
 20
747.0434380365
 30
0.0
 10
814.5967133011
 20
747.1371126581
 30
0.0
 10
814.6724310665
 20
747.2029785417
 30
0.0
  0
LINE
  5
4ED
100
AcDbEntity
  8
ALL_FEATURES
100
AcDbLine
 62
7
  6
CONTINUOUS
 10
815.0166276043
 20
747.4508699226
 11
815.069773152
 21
747.4824902532
  0
LINE
  5
4EE
100
AcDbEntity
  8
ALL_FEATURES
100
AcDbLine
 62
7
  6
CONTINUOUS
 10
815.069773152
 20
747.4824902532
 11
815.255543873
 21
747.5931568278
  0
SPLINE
  5
4EF
100
AcDbEntity
  8
ALL_FEATURES
100
AcDbSpline
 62
7
  6
CONTINUOUS
 70
0
 71
3
 72
9
 73
5
 74
0
 42
0.0000001
 43
0.0000001
 44
0.0000000001
 40
0.0
 40
0.0
 40
0.0
 40
0.0
 40
0.526377325
 40
1.0
 40
1.0
 40
1.0
 40
1.0
 10
829.2874764361
 20
763.5070418071
 30
0.0
 10
829.2606870786
 20
763.7052303749
 30
0.0
 10
829.2704515709
 20
764.0943083052
 30
0.0
 10
829.4373156078
 20
764.4529682911
 30
0.0
 10
829.5532810474
 20
764.5905658712
 30
0.0
  0
SPLINE
  5
4F0
100
AcDbEntity
  8
ALL_FEATURES
100
AcDbSpline
 62
7
  6
CONTINUOUS
 70
0
 71
3
 72
9
 73
5
 74
0
 42
0.0000001
 43
0.0000001
 44
0.0000000001
 40
0.0
 40
0.0
 40
0.0
 40
0.0
 40
0.27140165
 40
1.0
 40
1.0
 40
1.0
 40
1.0
 10
829.2874781848
 20
763.507041798
 30
0.0
 10
829.2986387314
 20
763.4244835465
 30
0.0
 10
829.2711678075
 20
763.1112465786
 30
0.0
 10
829.103973999
 20
762.8394374635
 30
0.0
 10
828.9756603522
 20
762.6562575664
 30
0.0
  0
LINE
  5
4F1
100
AcDbEntity
  8
ALL_FEATURES
100
AcDbLine
 62
7
  6
CONTINUOUS
 10
768.2842010377
 20
728.559906117
 11
768.4098762797
 21
728.5613012501
  0
LINE
  5
4F2
100
AcDbEntity
  8
ALL_FEATURES
100
AcDbLine
 62
7
  6
CONTINUOUS
 10
803.6558698456
 20
737.4518219393
 11
803.7109099492
 21
737.4804517392
  0
LINE
  5
4F3
100
AcDbEntity
  8
ALL_FEATURES
100
AcDbLine
 62
7
  6
CONTINUOUS
 10
767.540890836
 20
728.5561069585
 11
767.6420450252
 21
728.556241747
  0
LINE
  5
4F4
100
AcDbEntity
  8
ALL_FEATURES
100
AcDbLine
 62
7
  6
CONTINUOUS
 10
768.8833516258
 20
728.5682851906
 11
769.0126491963
 21
728.570650619
  0
LINE
  5
4F5
100
AcDbEntity
  8
ALL_FEATURES
100
AcDbLine
 62
7
  6
CONTINUOUS
 10
712.0637884523
 20
728.5561648625
 11
713.817045079
 21
728.5561392143
  0
LINE
  5
4F6
100
AcDbEntity
  8
ALL_FEATURES
100
AcDbLine
 62
7
  6
CONTINUOUS
 10
713.817045079
 20
728.5561392143
 11
713.8790473487
 21
728.5561374627
  0
LINE
  5
4F7
100
AcDbEntity
  8
ALL_FEATURES
100
AcDbLine
 62
7
  6
CONTINUOUS
 10
713.8790473487
 20
728.5561374627
 11
766.8510705406
 21
728.5560738809
  0
LINE
  5
4F8
100
AcDbEntity
  8
ALL_FEATURES
100
AcDbLine
 62
7
  6
CONTINUOUS
 10
766.8510705406
 20
728.5560738809
 11
767.277526263
 21
728.5561298413
  0
LINE
  5
4F9
100
AcDbEntity
  8
ALL_FEATURES
100
AcDbLine
 62
7
  6
CONTINUOUS
 10
767.277526263
 20
728.5561298413
 11
767.442521237
 21
728.5561517407
  0
LINE
  5
4FA
100
AcDbEntity
  8
ALL_FEATURES
100
AcDbLine
 62
7
  6
CONTINUOUS
 10
767.442521237
 20
728.5561517407
 11
767.5408897087
 21
728.5561648625
  0
LINE
  5
4FB
100
AcDbEntity
  8
ALL_FEATURES
100
AcDbLine
 62
7
  6
CONTINUOUS
 10
870.4876604579
 20
799.1720402169
 11
869.8643265014
 21
798.5464166942
  0
LINE
  5
4FC
100
AcDbEntity
  8
ALL_FEATURES
100
AcDbLine
 62
7
  6
CONTINUOUS
 10
869.8643265014
 20
798.5464166942
 11
869.8209146865
 21
798.502747954
  0
LINE
  5
4FD
100
AcDbEntity
  8
ALL_FEATURES
100
AcDbLine
 62
7
  6
CONTINUOUS
 10
869.8209146865
 20
798.502747954
 11
866.9697805714
 21
795.6344085573
  0
LINE
  5
4FE
100
AcDbEntity
  8
ALL_FEATURES
100
AcDbLine
 62
7
  6
CONTINUOUS
 10
866.9697805714
 20
795.6344085573
 11
866.4910824356
 21
795.153571546
  0
LINE
  5
4FF
100
AcDbEntity
  8
ALL_FEATURES
100
AcDbLine
 62
7
  6
CONTINUOUS
 10
866.4910824356
 20
795.153571546
 11
833.0198051387
 21
761.4606106924
  0
LINE
  5
500
100
AcDbEntity
  8
ALL_FEATURES
100
AcDbLine
 62
7
  6
CONTINUOUS
 10
833.0198051387
 20
761.4606106924
 11
832.5527976872
 21
760.9893281401
  0
LINE
  5
501
100
AcDbEntity
  8
ALL_FEATURES
100
AcDbLine
 62
7
  6
CONTINUOUS
 10
832.5527976872
 20
760.9893281401
 11
831.8450792488
 21
760.2750418929
  0
LINE
  5
502
100
AcDbEntity
  8
ALL_FEATURES
100
AcDbLine
 62
7
  6
CONTINUOUS
 10
831.8450792488
 20
760.2750418929
 11
831.6714754285
 21
760.0998101723
  0
LINE
  5
503
100
AcDbEntity
  8
ALL_FEATURES
100
AcDbLine
 62
7
  6
CONTINUOUS
 10
831.6714754285
 20
760.0998101723
 11
830.8021318552
 21
759.222211506
  0
LINE
  5
504
100
AcDbEntity
  8
ALL_FEATURES
100
AcDbLine
 62
7
  6
CONTINUOUS
 10
830.8021318552
 20
759.222211506
 11
830.7746199359
 21
759.1944354731
  0
LINE
  5
505
100
AcDbEntity
  8
ALL_FEATURES
100
AcDbLine
 62
7
  6
CONTINUOUS
 10
830.7746199359
 20
759.1944354731
 11
830.7111403004
 21
759.1303457519
  0
LINE
  5
506
100
AcDbEntity
  8
ALL_FEATURES
100
AcDbLine
 62
7
  6
CONTINUOUS
 10
830.7111403004
 20
759.1303457519
 11
829.9366514287
 21
758.3483354516
  0
LINE
  5
507
100
AcDbEntity
  8
ALL_FEATURES
100
AcDbLine
 62
7
  6
CONTINUOUS
 10
829.9366514287
 20
758.3483354516
 11
829.763585648
 21
758.1735688651
  0
LINE
  5
508
100
AcDbEntity
  8
ALL_FEATURES
100
AcDbLine
 62
7
  6
CONTINUOUS
 10
829.763585648
 20
758.1735688651
 11
829.0797560275
 21
757.4829450304
  0
SPLINE
  5
509
100
AcDbEntity
  8
ALL_FEATURES
100
AcDbSpline
 62
7
  6
CONTINUOUS
 70
0
 71
3
 72
9
 73
5
 74
0
 42
0.0000001
 43
0.0000001
 44
0.0000000001
 40
0.0
 40
0.0
 40
0.0
 40
0.0
 40
0.2481365045
 40
1.0
 40
1.0
 40
1.0
 40
1.0
 10
829.0797560275
 20
757.4829450304
 30
0.0
 10
828.6519681597
 20
757.0508694278
 30
0.0
 10
826.9281092698
 20
755.309445706
 30
0.0
 10
825.2048650062
 20
753.5674135052
 30
0.0
 10
823.9096341455
 20
752.2572342805
 30
0.0
  0
LINE
  5
50A
100
AcDbEntity
  8
ALL_FEATURES
100
AcDbLine
 62
7
  6
CONTINUOUS
 10
823.9096341455
 20
752.2572342805
 11
823.8631081681
 21
752.2101709867
  0
SPLINE
  5
50B
100
AcDbEntity
  8
ALL_FEATURES
100
AcDbSpline
 62
7
  6
CONTINUOUS
 70
0
 71
3
 72
11
 73
7
 74
0
 42
0.0000001
 43
0.0000001
 44
0.0000000001
 40
0.0
 40
0.0
 40
0.0
 40
0.0
 40
0.3099987915
 40
0.5922277949
 40
0.8223306307
 40
1.0
 40
1.0
 40
1.0
 40
1.0
 10
805.2894888182
 20
740.2065995516
 30
0.0
 10
801.9309551812
 20
738.0607095517
 30
0.0
 10
795.1514583336
 20
734.5035473874
 30
0.0
 10
785.1258762257
 20
731.0519654983
 30
0.0
 10
776.4349718224
 20
729.1856399995
 30
0.0
 10
771.2053181799
 20
728.6613666172
 30
0.0
 10
768.922398809
 20
728.5838801424
 30
0.0
  0
LINE
  5
50C
100
AcDbEntity
  8
ALL_FEATURES
100
AcDbLine
 62
7
  6
CONTINUOUS
 10
814.8658210197
 20
747.1757527898
 11
814.9649475467
 21
747.0734583649
  0
LINE
  5
50D
100
AcDbEntity
  8
ALL_FEATURES
100
AcDbLine
 62
7
  6
CONTINUOUS
 10
814.9649475467
 20
747.0734583649
 11
814.9975140115
 21
747.0398541104
  0
LINE
  5
50E
100
AcDbEntity
  8
ALL_FEATURES
100
AcDbLine
 62
7
  6
CONTINUOUS
 10
814.6170875463
 20
747.0364300603
 11
814.8382312861
 21
747.1603026565
  0
LINE
  5
50F
100
AcDbEntity
  8
ALL_FEATURES
100
AcDbLine
 62
7
  6
CONTINUOUS
 10
814.8382312861
 20
747.1603026565
 11
814.8658210197
 21
747.1757527898
  0
LINE
  5
510
100
AcDbEntity
  8
ALL_FEATURES
100
AcDbLine
 62
7
  6
CONTINUOUS
 10
814.9975140115
 20
747.0398541104
 11
815.035486393
 21
747.0008422464
  0
LINE
  5
511
100
AcDbEntity
  8
ALL_FEATURES
100
AcDbLine
 62
7
  6
CONTINUOUS
 10
814.6170875463
 20
747.0364300603
 11
814.063756453
 21
746.7274395699
  0
LINE
  5
512
100
AcDbEntity
  8
ALL_FEATURES
100
AcDbLine
 62
7
  6
CONTINUOUS
 10
814.9320062618
 20
746.9126909064
 11
814.8737391698
 21
746.9850714752
  0
SPLINE
  5
513
100
AcDbEntity
  8
ALL_FEATURES
100
AcDbSpline
 62
7
  6
CONTINUOUS
 70
0
 71
3
 72
11
 73
7
 74
0
 42
0.0000001
 43
0.0000001
 44
0.0000000001
 40
0.0
 40
0.0
 40
0.0
 40
0.0
 40
0.1828000568
 40
0.4130973187
 40
0.6910005504
 40
1.0
 40
1.0
 40
1.0
 40
1.0
 10
769.2505104005
 20
728.5949692956
 30
0.0
 10
771.5813562475
 20
728.6857425468
 30
0.0
 10
776.8376272731
 20
729.2282381627
 30
0.0
 10
785.4732579818
 20
731.0942743109
 30
0.0
 10
795.3620730998
 20
734.4917455884
 30
0.0
 10
802.0505086845
 20
737.944217844
 30
0.0
 10
805.3962960587
 20
740.030544401
 30
0.0
  0
LINE
  5
514
100
AcDbEntity
  8
ALL_FEATURES
100
AcDbLine
 62
7
  6
CONTINUOUS
 10
805.3962960587
 20
740.030544401
 11
805.4437652085
 21
740.0601699207
  0
LINE
  5
515
100
AcDbEntity
  8
ALL_FEATURES
100
AcDbLine
 62
7
  6
CONTINUOUS
 10
814.8737335199
 20
746.9850784917
 11
814.8667128883
 21
747.154549892
  0
LINE
  5
516
100
AcDbEntity
  8
ALL_FEATURES
100
AcDbLine
 62
7
  6
CONTINUOUS
 10
814.8667128883
 20
747.154549892
 11
814.8658254032
 21
747.175747395
  0
ENDSEC
  0
SECTION
  2
OBJECTS
  0
DICTIONARY
  5
C
100
AcDbDictionary
280
0
281
1
  3
ACAD_GROUP
350
D
  3
ACAD_MLINESTYLE
350
17
  3
ACAD_LAYOUT
350
1A
  3
ACAD_PLOTSETTINGS
350
19
  3
ACAD_PLOTSTYLENAME
350
E
  3
ACAD_TABLESTYLE
350
       517
  0
DICTIONARY
  5
D
102
{ACAD_REACTORS
330
C
102
}
100
AcDbDictionary
280
0
281
1
  0
ACDBDICTIONARYWDFLT
  5
E
102
{ACAD_REACTORS
330
C
102
}
100
AcDbDictionary
281
1
  3
Normal
350
F
100
AcDbDictionaryWithDefault
340
F
  0
DICTIONARY
  5
17
102
{ACAD_REACTORS
330
C
102
}
100
AcDbDictionary
280
0
281
1
  3
Standard
350
18
  0
DICTIONARY
  5
517
330
C
100
AcDbDictionary
281
1
  3
Standard
350
       51A
  3
Standard1
350
       51B
  0
DICTIONARY
  5
19
102
{ACAD_REACTORS
330
C
102
}
100
AcDbDictionary
281
1
  0
DICTIONARY
  5
1A
102
{ACAD_REACTORS
330
C
102
}
100
AcDbDictionary
281
1
  3
Model
350
518
  3
Layout1
350
519
  0
ACDBPLACEHOLDER
  5
F
102
{ACAD_REACTORS
330
E
102
}
  0
MLINESTYLE
  5
18
102
{ACAD_REACTORS
330
17
102
}
100
AcDbMlineStyle
  2
STANDARD
 70
0
  3

 62
256
 51
90.0
 52
90.0
 71
2
 49
0.5
 62
256
  6
BYLAYER
 49
-0.5
 62
256
  6
BYLAYER
  0
LAYOUT
  5
518
102
{ACAD_REACTORS
330
1A
102
}
100
AcDbPlotSettings
  1

  2
none_device
  4
ISO_A0_(1189.00_x_841.00_MM)
  6

 40
0.0
 41
0.0
 42
0.0
 43
0.0
 44
1189.0
 45
841.0
 46
0.0
 47
0.0
 48
0.0
 49
0.0
140
0.0
141
0.0
142
1.0
143
1.0
 70
1024
 72
1
 73
0
 74
0
  7

 75
0
147
1.0
148
0.0
149
0.0
100
AcDbLayout
  1
Model
 70
0
 71
0
 10
0.0
 20
0.0
 11
1189.0
 21
841.0
 12
0.0
 22
0.0
 32
0.0
 14
0.0
 24
0.0
 34
0.0
 15
0.0
 25
0.0
 35
0.0
146
0.0
 13
0.0
 23
0.0
 33
0.0
 16
1.0
 26
0.0
 36
0.0
 17
0.0
 27
1.0
 37
0.0
 76
0
330
22A
345
0
346
0
  0
LAYOUT
  5
519
102
{ACAD_REACTORS
330
1A
102
}
100
AcDbPlotSettings
  1

  2
none_device
  4
ISO_A0_(1189.00_x_841.00_MM)
  6

 40
0.0
 41
0.0
 42
0.0
 43
0.0
 44
1189.0
 45
841.0
 46
0.0
 47
0.0
 48
0.0
 49
0.0
140
0.0
141
0.0
142
1.0
143
1.0
 70
0
 72
1
 73
0
 74
0
  7

 75
0
147
1.0
148
0.0
149
0.0
100
AcDbLayout
  1
Layout1
 70
0
 71
1
 10
0.0
 20
0.0
 11
1189.0
 21
841.0
 12
0.0
 22
0.0
 32
0.0
 14
0.0
 24
0.0
 34
0.0
 15
0.0
 25
0.0
 35
0.0
146
0.0
 13
0.0
 23
0.0
 33
0.0
 16
1.0
 26
0.0
 36
0.0
 17
0.0
 27
1.0
 37
0.0
 76
0
330
22B
345
0
346
0
  0
TABLESTYLE
  5
51A
102
{ACAD_REACTORS
330
517
330
2B2
102
}
330
517
100
AcDbTableStyle
  3
Standard
 70
0
 71
0
 40
0.06
 41
0.06
280
1
281
1
  7
Standard
140
0.18
170
1
 62
0
 63
7
283
0
  7
Standard
140
0.18
170
1
 62
0
 63
7
283
0
  7
Standard
140
0.18
170
1
 62
0
 63
7
283
0
  0
TABLESTYLE
  5
51B
102
{ACAD_REACTORS
330
517
102
}
330
517
100
AcDbTableStyle
  3
Standard1
 70
1
 71
0
 40
0.06
 41
0.06
280
1
281
1
  7
Standard
140
0.18
170
1
 62
0
 63
7
283
0
  7
Standard
140
0.18
170
1
 62
0
 63
7
283
0
  7
Standard
140
0.18
170
1
 62
0
 63
7
283
0
  0
ENDSEC
  0
EOF
